MEGA SALE -50% FORZA HORIZON 4 ULTIMATE+ВСЕ DLC+ОНЛАЙН всего за 599р. 299 руб. (супер цена). Внимание количество ограничено!!!

iTunes

1+1

iTunes

мы

iTunes

1

iTunes

Чернобыль

iTunes

Ральф против интернета

Лицензия

ПШазам

Лицензия

Игра престолов

Лицензия

30
pack

ВАЖНО

!!Акция!!

Alien_RageХит недели

RePack

Resident Evil 21

ИГРА 18+

pack

RePack

Metro:Exodus

!!Акция!!

Alien_Rage

RePack

fifa19

RePack

Assassins Creed: Odyssey

RePack

NEED FOR SPEED™ PAYBACK

3 сезон

9 сезон

Бесстыжие 9 сезон

Все сериалы

все сериалы на PB.wtf

RePack

FAR CRY 5
Ребята, катастрофически не хватает 7730р. для оплаты серверов за АВГУСТ (всвязи с блокировками трафик упал в 3 раза), 1-2р., выручайте.
  

Кладбище домашних животных / Pet Sematary (Мэри Ламберт) [1989, ужасы, триллер, UHD BDRemux 2160p] 3xMVO + 2xDVO + 4xAVO pb.wtf

Кладбище домашних животных через торрент pb.wtf

Размер: 55.06 GB | Добавлен: 5 мес. назад | Торрент скачан:11 раз
Скачать  

22-03-2019 17:10 Кладбище домашних животных Скачать торрент  

Кладбище домашних животных / Pet Sematary«A Pet Isn't Just For Life»
Год выпуска: 1989
Страна: США
Жанр: ужасы, триллер
Продолжительность: 01:42:45
Перевод: Профессиональный многоголосый, профессиональный двухголосый, авторский
Субтитры: Русские (Full UHD Blu-ray), английские (Full, SDH)
Режиссер: Мэри Ламберт
В ролях:

Дэйл Мидкифф (Louis Creed), Фред Гуинн (Jud Crandall), Дениз Кросби (Rachel Creed), Брэд Гринквист (Victor Pascow), Майкл Ломбард (Irwin Goldman), Мико Хьюз (Gage Creed), Блэйз Бердаль (Ellie Creed), Сьюзан Бломмарт (Missy Dandridge), Мара Кларк (Marcy Charlton), Кави Раз (Steve Masterton), Мэри Луиза Уилсон (Dory Goldman), Эндрю Хубатсек (Zelda)
Описание:
Доктор Луис Крид переезжает в маленький городок, где его семью ждет большой дом, а самого Луиса - скромная должность лечащего врача местного колледжа. Новая, просторная обитель четы Кридов расположена на краю густого, величественного леса. А в самом лесу - маленькое и мрачное кладбище, где местные жители хоронят своих домашних животных.
Рейтинг:

MPAA: R - Лицам до 17 лет обязательно присутствие взрослого
Качество: UHD BDRemux 2160p
Формат: MKV
Видео: HEVC HDR, 55.7 Мбит/с, 3840x2160, 23.976 кадр/с
Аудио#1: Russian: 48 kHz, AC3, 3/2 (L,C,R,l,r) + LFE ch, ~640 kbps avg |Многоголосый закадровый, UHD Blu-ray|
Аудио#2: Russian: 48 kHz, AC3, 3/2 (L,C,R,l,r) + LFE ch, ~384 kbps avg |Многоголосый закадровый, Киномания|
Аудио#3: Russian: 48 kHz, AC3, 3/2 (L,C,R,l,r) + LFE ch, ~384 kbps avg |Многоголосый закадровый, DVD R5|
Аудио#4: Russian: 48 kHz, AC3, 2/0 (L,R) ch, ~192 kbps avg |Двухголосый закадровый, Премьер Видео Фильм|
Аудио#5: Russian: 48 kHz/24-bit, DTS-HD MA 5.1 , ~3908 kbps avg |Двухголосый закадровый, Пётр Гланц, Инна Королёва|
Аудио#6: Russian: 48 kHz/24-bit, DTS-HD MA 5.1 , ~3907 kbps avg |Одноголосый закадровый, А. Михалёв|
Аудио#7: Russian: 48 kHz/24-bit, DTS-HD MA 5.1 , ~3899 kbps avg |Одноголосый закадровый, В. Горчаков|
Аудио#8: Russian: 48 kHz/24-bit, DTS-HD MA 5.1 , ~3906 kbps avg |Одноголосый закадровый, Ю. Сербин|
Аудио#9: Russian: 48 kHz, AC3, 2/0 (L,R) ch, ~192 kbps avg |Одноголосый закадровый, В. Дохалов|
Аудио#10: English: 48 kHz/24-bit, DTS-HD MA 5.1, ~3657 kbps avg
Навигация по главам: есть
General
Unique ID : 320073297745421749979821743010342520029 (0xF0CBDFF6582D933259018A86AEAC44DD)
Complete name : C:\Users\Public\Videos\Sample Videos\Filmy\Pet.Sematary.1989.2160p.HDR.BDRemux.TeamHD.mkv
Format : Matroska
Format version : Version 4
File size : 55.1 GiB
Duration : 1 h 42 min
Overall bit rate mode : Variable
Overall bit rate : 76.7 Mb/s
Encoded date : UTC 2019-03-22 10:35:27
Writing application : mkvmerge v30.1.0 ('Forever And More') 64-bit
Writing library : libebml v1.3.6 + libmatroska v1.4.9
Cover : Yes
Attachments : cover.jpg

Video
ID : 1
Format : HEVC
Format/Info : High Efficiency Video Coding
Commercial name : HDR10
Format profile : Main 10@L5.1@High
Codec ID : V_MPEGH/ISO/HEVC
Duration : 1 h 42 min
Bit rate : 55.7 Mb/s
Width : 3 840 pixels
Height : 2 160 pixels
Display aspect ratio : 16:9
Frame rate mode : Constant
Frame rate : 23.976 (24000/1001) FPS
Color space : YUV
Chroma subsampling : 4:2:0 (Type 2)
Bit depth : 10 bits
Bits/(Pixel*Frame) : 0.280
Stream size : 39.9 GiB (73%)
Title : BDRemux.2160p.HDR by Silverok
Default : Yes
Forced : No
Color range : Limited
Color primaries : BT.2020
Transfer characteristics : PQ
Matrix coefficients : BT.2020 non-constant
Mastering display color primaries : Display P3
Mastering display luminance : min: 0.0001 cd/m2, max: 1000 cd/m2

Audio #1
ID : 2
Format : AC-3
Format/Info : Audio Coding 3
Commercial name : Dolby Digital
Codec ID : A_AC3
Duration : 1 h 42 min
Bit rate mode : Constant
Bit rate : 640 kb/s
Channel(s) : 6 channels
Channel layout : L R C LFE Ls Rs
Sampling rate : 48.0 kHz
Frame rate : 31.250 FPS (1536 SPF)
Bit depth : 16 bits
Compression mode : Lossy
Stream size : 470 MiB (1%)
Title : Многоголосый закадровый, UHD Blu-ray
Language : Russian
Service kind : Complete Main
Default : Yes
Forced : No

Audio #2
ID : 3
Format : AC-3
Format/Info : Audio Coding 3
Commercial name : Dolby Digital
Codec ID : A_AC3
Duration : 1 h 42 min
Bit rate mode : Constant
Bit rate : 384 kb/s
Channel(s) : 6 channels
Channel layout : L R C LFE Ls Rs
Sampling rate : 48.0 kHz
Frame rate : 31.250 FPS (1536 SPF)
Bit depth : 16 bits
Compression mode : Lossy
Stream size : 282 MiB (1%)
Title : Многоголосый закадровый, Киномания
Language : Russian
Service kind : Complete Main
Default : No
Forced : No

Audio #3
ID : 4
Format : AC-3
Format/Info : Audio Coding 3
Commercial name : Dolby Digital
Codec ID : A_AC3
Duration : 1 h 42 min
Bit rate mode : Constant
Bit rate : 384 kb/s
Channel(s) : 6 channels
Channel layout : L R C LFE Ls Rs
Sampling rate : 48.0 kHz
Frame rate : 31.250 FPS (1536 SPF)
Bit depth : 16 bits
Compression mode : Lossy
Stream size : 282 MiB (1%)
Title : Двухголосый закадровый, R5
Language : Russian
Service kind : Complete Main
Default : No
Forced : No

Audio #4
ID : 5
Format : AC-3
Format/Info : Audio Coding 3
Commercial name : Dolby Digital
Codec ID : A_AC3
Duration : 1 h 42 min
Bit rate mode : Constant
Bit rate : 192 kb/s
Channel(s) : 2 channels
Channel layout : L R
Sampling rate : 48.0 kHz
Frame rate : 31.250 FPS (1536 SPF)
Bit depth : 16 bits
Compression mode : Lossy
Stream size : 141 MiB (0%)
Title : Двухголосый закадровый, Премьер Видео Фильм
Language : Russian
Service kind : Complete Main
Default : No
Forced : No

Audio #5
ID : 6
Format : DTS XLL
Format/Info : Digital Theater Systems
Commercial name : DTS-HD Master Audio
Codec ID : A_DTS
Duration : 1 h 42 min
Bit rate mode : Variable
Bit rate : 3 908 kb/s
Channel(s) : 6 channels
Channel layout : C L R Ls Rs LFE
Sampling rate : 48.0 kHz
Frame rate : 93.750 FPS (512 SPF)
Bit depth : 24 bits
Compression mode : Lossless
Delay relative to video : 8 ms
Stream size : 2.80 GiB (5%)
Title : Двухголосый закадровый, Пётр Гланц, Инна Королёва
Language : Russian
Default : No
Forced : No

Audio #6
ID : 7
Format : DTS XLL
Format/Info : Digital Theater Systems
Commercial name : DTS-HD Master Audio
Codec ID : A_DTS
Duration : 1 h 42 min
Bit rate mode : Variable
Bit rate : 3 907 kb/s
Channel(s) : 6 channels
Channel layout : C L R Ls Rs LFE
Sampling rate : 48.0 kHz
Frame rate : 93.750 FPS (512 SPF)
Bit depth : 24 bits
Compression mode : Lossless
Delay relative to video : 8 ms
Stream size : 2.80 GiB (5%)
Title : Одноголосый закадровый, Алексей Михалёв
Language : Russian
Default : No
Forced : No

Audio #7
ID : 8
Format : DTS XLL
Format/Info : Digital Theater Systems
Commercial name : DTS-HD Master Audio
Codec ID : A_DTS
Duration : 1 h 42 min
Bit rate mode : Variable
Bit rate : 3 899 kb/s
Channel(s) : 6 channels
Channel layout : C L R Ls Rs LFE
Sampling rate : 48.0 kHz
Frame rate : 93.750 FPS (512 SPF)
Bit depth : 24 bits
Compression mode : Lossless
Delay relative to video : 8 ms
Stream size : 2.80 GiB (5%)
Title : Одноголосый закадровый, Василий Горчаков
Language : Russian
Default : No
Forced : No

Audio #8
ID : 9
Format : DTS XLL
Format/Info : Digital Theater Systems
Commercial name : DTS-HD Master Audio
Codec ID : A_DTS
Duration : 1 h 42 min
Bit rate mode : Variable
Bit rate : 3 906 kb/s
Channel(s) : 6 channels
Channel layout : C L R Ls Rs LFE
Sampling rate : 48.0 kHz
Frame rate : 93.750 FPS (512 SPF)
Bit depth : 24 bits
Compression mode : Lossless
Delay relative to video : 8 ms
Stream size : 2.80 GiB (5%)
Title : Одноголосый закадровый, Юрий Сербин
Language : Russian
Default : No
Forced : No

Audio #9
ID : 10
Format : AC-3
Format/Info : Audio Coding 3
Commercial name : Dolby Digital
Codec ID : A_AC3
Duration : 1 h 42 min
Bit rate mode : Constant
Bit rate : 192 kb/s
Channel(s) : 2 channels
Channel layout : L R
Sampling rate : 48.0 kHz
Frame rate : 31.250 FPS (1536 SPF)
Bit depth : 16 bits
Compression mode : Lossy
Stream size : 141 MiB (0%)
Title : Одноголосый закадровый, Вартан Дохалов
Language : Russian
Service kind : Complete Main
Default : No
Forced : No

Audio #10
ID : 11
Format : DTS XLL
Format/Info : Digital Theater Systems
Commercial name : DTS-HD Master Audio
Codec ID : A_DTS
Duration : 1 h 42 min
Bit rate mode : Variable
Bit rate : 3 657 kb/s
Channel(s) : 6 channels
Channel layout : C L R Ls Rs LFE
Sampling rate : 48.0 kHz
Frame rate : 93.750 FPS (512 SPF)
Bit depth : 24 bits
Compression mode : Lossless
Stream size : 2.62 GiB (5%)
Language : English
Default : No
Forced : No

Text #1
ID : 12
Format : UTF-8
Codec ID : S_TEXT/UTF8
Codec ID/Info : UTF-8 Plain Text
Duration : 1 h 42 min
Bit rate : 48 b/s
Count of elements : 820
Stream size : 36.0 KiB (0%)
Title : Full (UHD Blu-ray)
Language : Russian
Default : Yes
Forced : No

Text #2
ID : 13
Format : UTF-8
Codec ID : S_TEXT/UTF8
Codec ID/Info : UTF-8 Plain Text
Duration : 1 h 38 min
Bit rate : 37 b/s
Count of elements : 802
Stream size : 27.0 KiB (0%)
Title : Full
Language : English
Default : No
Forced : No

Text #3
ID : 14
Format : UTF-8
Codec ID : S_TEXT/UTF8
Codec ID/Info : UTF-8 Plain Text
Duration : 1 h 39 min
Bit rate : 43 b/s
Count of elements : 1040
Stream size : 31.6 KiB (0%)
Title : SDH
Language : English
Default : No
Forced : No

Menu
00:00:00.000 : en:Глава 01
00:03:01.390 : en:Глава 02
00:09:55.094 : en:Глава 03
00:17:22.333 : en:Глава 04
00:25:04.461 : en:Глава 05
00:33:43.146 : en:Глава 06
00:40:47.737 : en:Глава 07
00:44:15.903 : en:Глава 08
00:47:35.728 : en:Глава 09
00:53:26.745 : en:Глава 10
01:00:06.144 : en:Глава 11
01:09:09.145 : en:Глава 12
01:16:42.306 : en:Глава 13
01:21:35.182 : en:Глава 14
01:26:30.268 : en:Глава 15
01:28:25.675 : en:Глава 16
01:30:17.454 : en:Глава 17
01:35:35.104 : en:Глава 18
01:39:33.134 : en:Глава 19
pb.wtf



Скачать Кладбище домашних животных через торрент https://d.radikal.ru/d35/1903/5a/f38d5c761d04.png Скачать фильм Кладбище домашних животных через торрент бесплантно в хорошем качестве Описание: Доктор Луис Крид переезжает в маленький городок, где его семью ждет большой дом, а самого Луиса - скромная должность лечащего ... 10 10 1
Торрент: Зарегистрирован [2019-03-22 17:10] · скачан: 11 раз
Статус: √ проверено
Размер: 55.06 GB
Как cкачать? Как скачать Кладбище домашних животных через торрент | qTorrent

% Раздел Тема Автор DL S | L
Фильмы (Blu-ray, BD-Remux, HDDVD) [ 41.4 GB ] Кладбище домашних животных / Pet Sematary [1989 BDRemux 1080p] 2xMVO + 3xDVO + 2xVO + 4xAVO sheker187 Скачать
1 | 0


>> Регистрируемся здесь <<






Отзывы и комментарии о схеме читаем и пишем здесь: ---> Отзывы и комментарии о схеме

Новые благодарочки в телеграм довольных пользователей:
скриншот   скриншот   скриншот   скриншот   скриншот
    Дорогой пользователь! Огромная просьба, поблагодарите релизера, оцените раздачу и оставьте свои комментарий, если Вы скачали Кладбище домашних животных через торрент бесплатно! Внесите свою лепту в развитие PiratBit!
    Комментировать посты могут только пользователи прошедшие не сложную регистрацию
    Показать сообщения:    

    Кладбище домашних животных через торрент
    Скачать бесплатно Кладбище домашних животных
    Кладбище домашних животных скачать торрент
    Кладбище домашних животных смотреть онлайн
    Cкачать фильм Кладбище домашних животных бесплатно
    Кладбище домашних животных скачать торрент в хорошем качестве
    Кладбище домашних животных смотреть онлайн бесплатно в хорошем качестве


    Вы не можете начинать темы
    Вы не можете отвечать на сообщения
    Вы не можете редактировать свои сообщения
    Вы не можете удалять свои сообщения
    Вы не можете голосовать в опросах
    Вы не можете прикреплять файлы к сообщениям
    Вы можете скачивать файлы