новый адрес
Ссылка на приватное зеркало всего за 1$. Внимание количество ограничено!!!

iTunes

1+1

iTunes

мы

WEB-DL

1

iTunes

Чернобыль

iTunes

Ральф против интернета

Лицензия

ПШазам

Лицензия

Оно 2

Лицензия

30
pack

Вам бонус

ВАЖНО

!!Акция!!

Alien_RageХит недели

RePack

Resident Evil 21

ИГРА 18+

pack

RePack

jed

!!Акция!!

Alien_Rage

RePack

fifa19

RePack

Assassins Creed: Odyssey

RePack

NEED FOR SPEED™ PAYBACK

3 сезон

9 сезон

Бесстыжие 9 сезон

Все сериалы

все сериалы на PB.wtf

RePack

FAR CRY 5
Ребята, катастрофически не хватает 1900р. для оплаты серверов за Октябрь (всвязи с блокировками трафик упал в 3 раза), 1-2р., выручайте.
  

Месть Лиззи Борден / Lizzie (Крэйг Уилльям Макнейлл) [2018, триллер, драма, криминал, детектив, биография, BDRip] DUB [iTunes] pb.wtf

Месть Лиззи Борден через торрент pb.wtf

Раздают: 1 [ 0 KB/s ]
Размер: 1.42 GB | Добавлен: 8 мес. назад | Торрент скачан:186 раз
Скачать  

22-03-2019 20:11 Месть Лиззи Борден Скачать торрент  

Месть Лиззи Борден / Lizzie
Год выпуска: 2018
Страна: США
Жанр: триллер, драма, криминал, детектив, биография
Продолжительность: 01:45:41
Перевод: Дублированный | iTunes
Субтитры: отсутствуют

Режиссер: Крэйг Уилльям Макнейлл

rating

В ролях:

Хлоя Севиньи, Кристен Стюарт, Дэнис О Хэр, Ким Диккенс, Фиона Шоу, Джефф Перри, Джейми Шеридан, Тара Окс, Джэй Хьюджули, Дэрин Купер

Описание:

4 августа 1892 года усадьба состоятельной семьи Борден огласилась дикими криками. Служанка обнаружила изуродованные и окровавленные тела главы семейства и его жены. Кто-то нанес супружеской паре десятки зверских ударов топором. Следов ограбления не нашли, и основной подозреваемой стала девушка, чьи отец и мачеха были убиты с поразительной жестокостью. Расследование этого преступления вылилось в одно из самых известных и невероятных дел в истории американской криминалистики, в легенду о насилии и мести, о тайной и запретной страсти.

Качество: BDRip
Формат: AVI

Видео: Xvid 73, 720x304, ~1526 kbps, 23,976 fps
Аудио: русский, AC3, 5.1 ch, 48 kHz, 384 kbps | iTunes
скриншот  скриншот  скриншот  скриншот  

General
Полное имя : E:TorrentLizzieBDRip.avi
Формат : AVI
Формат/Информация : Audio Video Interleave
Профиль формата : OpenDML
Размер файла : 1.42 GiB
Продолжительность : 1 h 45 min
Общий поток : 1 922 kb/s
Программа кодирования : XviD4PSP 6.0 / 54.27.101

Video
Идентификатор : 0
Формат : MPEG-4 Visual
Профиль формата : Advanced Simple@L5
Настройки формата : BVOP2 / Custom Matrix
Параметр BVOP формата : 2
Параметр QPel формата : No
Параметр GMC формата : No warppoints
Параметр матрицы формата : Custom
Идентификатор кодека : XVID
Идентификатор кодека/Подсказка : XviD
Продолжительность : 1 h 45 min
Битрейт : 1 526 kb/s
Ширина : 720 pixels
Высота : 304 pixels
Соотношение сторон : 2.35:1
Частота кадров : 23.976 (23976/1000) FPS
Цветовое пространство : YUV
Субдискретизация насыщенности : 4:2:0
Битовая глубина : 8 bits
Тип развёртки : Progressive
Метод сжатия : Lossy
Бит/(Пиксели*Кадры) : 0.291
Размер потока : 1.13 GiB (79%)
Библиотека кодирования : XviD 73

Audio
Идентификатор : 1
Формат : AC-3
Формат/Информация : Audio Coding 3
Идентификатор кодека : 2000
Продолжительность : 1 h 45 min
Вид битрейта : Constant
Битрейт : 384 kb/s
Каналы : 6 channels
Расположение каналов : Front: L C R, Side: L R, LFE
Частота : 48.0 kHz
Частота кадров : 31.250 FPS (1536 SPF)
Битовая глубина : 16 bits
Метод сжатия : Lossy
Размер потока : 290 MiB (20%)
Выравнивание : Aligned on interleaves
Продолжительность промежутка : 32 ms (0.77 video frame)

pb.wtf



Скачать Месть Лиззи Борден через торрент http://c.radikal.ru/c21/1901/85/f14a52332ff1.png Скачать фильм Месть Лиззи Борден через торрент бесплантно в хорошем качестве Описание: 4 августа 1892 года усадьба состоятельной семьи Борден огласилась дикими криками. Служанка обнаружила изуродованные и ... 10 10 3
Торрент: Зарегистрирован [2019-03-22 20:11] · скачан: 186 раз
Статус: √ проверено
Размер: 1.42 GB
Как cкачать? Как скачать Месть Лиззи Борден через торрент | qTorrent

% Раздел Тема Автор DL S | L
Фильмы 2018 [DVDrip, WEB-DLRip, HDrip] (DUB, MVO) [ 1.41 GB ] Месть Лиззи Борден / Lizzie [2018 биография BDRip] - Twi7ter Скачать
2 | 0
Фильмы [HD 720p, 1080p] (Хороший звук DUB, MVO) [ 3.72 GB ] Месть Лиззи Борден / Lizzie [2018 биография BDRip 720p] MVO [HDRezka Studio] + bober100 Скачать
2 | 0
Фильмы [HD 720p, 1080p] (Хороший звук DUB, MVO) [ 6.65 GB ] Месть Лиззи Борден / Lizzie [2018 биография BDRip 1080p] MVO [HDRezka Studio] + bober100 Скачать
1 | 0
T Фильмы (Blu-ray, BD-Remux, HDDVD) [ 17.25 GB ] Месть Лиззи Борден / Lizzie [2018 биография BD Remux 1080р] MVO [HDRezka Studio] bober100 Скачать
1 | 0

28-11-2019 20:33  

Отключить всю рекламу на сайте

    Дорогой пользователь! Огромная просьба, поблагодарите релизера, оцените раздачу и оставьте свои комментарий, если Вы скачали Месть Лиззи Борден через торрент бесплатно! Внесите свою лепту в развитие PiratBit!
    Комментировать посты могут только пользователи прошедшие не сложную регистрацию
    Показать сообщения:    

    Месть Лиззи Борден через торрент
    Скачать бесплатно Месть Лиззи Борден
    Месть Лиззи Борден скачать торрент
    Месть Лиззи Борден смотреть онлайн
    Cкачать фильм Месть Лиззи Борден бесплатно
    Месть Лиззи Борден скачать торрент в хорошем качестве
    Месть Лиззи Борден смотреть онлайн бесплатно в хорошем качестве


    Вы не можете начинать темы
    Вы не можете отвечать на сообщения
    Вы не можете редактировать свои сообщения
    Вы не можете удалять свои сообщения
    Вы не можете голосовать в опросах
    Вы не можете прикреплять файлы к сообщениям
    Вы можете скачивать файлы