Ссылка на приватное зеркало нашего сайта всего за 1$. Внимание количество ограничено!!!

2 сезон

iTunes

1 сезон

1

iTunes

iTunes

iTunes

1 сезон

RePack

30

ИГРА 18+

pack

ВАЖНО

!!Акция!!

Alien_RageХит недели

RePack

MK11
pack

Забери бонус

RePack

jed

!!Акция!!

Alien_Rage

RePack

fifa19

RePack

Assassins Creed: Odyssey

RePack

NEED FOR SPEED™ PAYBACK

4 сезон

9 сезон

Бесстыжие 9 сезон

Все сериалы

все сериалы на PB.wtf

RePack

FAR CRY 5
  

Шифр / Сезон: 1 / Серии: 1-16 из 16 (Вера Сторожева) [2019, Детектив, исторический, WEB-DL 1080p] pb.wtf

Шифр через торрент pb.wtf

Размер: 26.97 GB | Добавлен: 1 год 7 мес. назад | Торрент скачан:124 раза
Скачать  

22-03-2019 21:18 Шифр Скачать торрент  

ШифрГод выпуска: 2019
Страна: Россия
Жанр: Детектив, исторический
Продолжительность: ~ 00:47:00 серия
Субтитры: отсутствуют

Режиссер: Вера Сторожева



В ролях:

Марьяна Спивак, Елена Панова, Екатерина Вилкова, Яна Осипова, Сергей Пускепалис, Михаил Евланов, Олег Гаас, Дмитрий Мазуров, Виктор Конухин, Виталия Корниенко, Софья Хилькова, Максим Стоянов, Екатерина Лапига, Виктор Добронравов, Николай Качура, Алексей Колган, Нина Дворжецкая, Александра Урсуляк, Светлана Колпакова, Николай Токарев

Описание:

Действие разворачивается в Москве 1956 года и рассказывает историю четырёх женщин, которых связывает военное прошлое: работа в спецотделе ГРУ. Они сходятся вновь, чтобы вести расследования и помогать следственным органам в особо запутанных делах. Обладая феноменальными аналитическими способностями, Ирина, Анна, Софья и Катерина, рискуя собой, а также благополучием собственных семей, ловят преступников, которые угрожают жизни простых людей и всей стране в целом.

Качество: WEB-DL 1080p
Формат: MKV

Видео: MPEG4 AVC Video, H264, 16:9, 1920x1080, 25 fps, ~4800 kbps, 0.093 bit/pixel
Аудио: AC3 Dolby Digital, 48.0 kHz, 2/0 (L,R) ch, 192 kbps
скриншот  скриншот  скриншот  скриншот  скриншот  

Unique ID : 252157008515784394473808930407716954140 (0xBDB3AC5FEDE98D1BA24354DC31FF201C)
Complete name : D:\Shifr.2018.WEB-DL.(1080p).Getty\Shifr.e01.2018.WEB-DL.(1080p).Getty.mkv
Format : Matroska
Format version : Version 4 / Version 2
File size : 1.66 GiB
Duration : 48 min 42 s
Overall bit rate mode : Constant
Overall bit rate : 4 888 kb/s
Movie name : Shifr.e01.2018.WEB-DL.(1080p).Getty
Encoded date : UTC 2019-03-11 19:32:25
Writing application : mkvmerge v7.8.0 ('River Man') 32bit built on Mar 27 2015 16:18:02
Writing library : libebml v1.3.1 + libmatroska v1.4.2

Video
ID : 1
Format : AVC
Format/Info : Advanced Video Codec
Format profile : High@L4.1
Format settings : CABAC / 4 Ref Frames
Format settings, CABAC : Yes
Format settings, ReFrames : 4 frames
Codec ID : V_MPEG4/ISO/AVC
Duration : 48 min 42 s
Bit rate mode : Constant
Bit rate : 4 800 kb/s
Width : 1 920 pixels
Height : 1 080 pixels
Display aspect ratio : 16:9
Frame rate mode : Constant
Frame rate : 25.000 FPS
Color space : YUV
Chroma subsampling : 4:2:0
Bit depth : 8 bits
Scan type : Progressive
Bits/(Pixel*Frame) : 0.093
Stream size : 1.60 GiB (96%)
Default : Yes
Forced : No

Audio
ID : 2
Format : AC-3
Format/Info : Audio Coding 3
Codec ID : A_AC3
Duration : 48 min 42 s
Bit rate mode : Constant
Bit rate : 192 kb/s
Channel(s) : 2 channels
Channel positions : Front: L R
Sampling rate : 48.0 kHz
Frame rate : 31.250 FPS (1536 SPF)
Bit depth : 16 bits
Compression mode : Lossy
Stream size : 66.9 MiB (4%)
Service kind : Complete Main
Default : Yes
Forced : No

pb.wtf



Скачать Шифр через торрент http://img14.lostpic.net/2019/03/11/4cbd722033e366b41aebe9a22e89894e.jpg Скачать фильм Шифр через торрент бесплантно в хорошем качестве Описание: Действие разворачивается в Москве 1956 года и рассказывает историю четырёх женщин, которых связывает военное прошлое: работа в ... 9.7 10 6
Торрент: Зарегистрирован [2019-03-22 21:18] · скачан: 124 раз
Статус: √ проверено
Размер: 26.97 GB
Как cкачать? Как скачать Шифр через торрент | qTorrent

% Раздел Тема Автор DL S | L
Наши сериалы [ 10.8 GB ] Шифр / Сезон: 1 / Серии: 1-16 из 16 [2019 исторический HDTVRip] bober100 Скачать
2 | 0
Наши сериалы [ 20.12 GB ] Шифр / Сезон: 1 / Серии: 1-16 из 16 [2019 исторический HDTVRip 720p] bober100 Скачать
1 | 0
Наши сериалы [ 37.92 GB ] Шифр / Сезон: 1 / Серии: 1-16 из 16 [2019 исторический HDTV 1080i] bober100 Скачать
2 | 0
Наши сериалы [ 9.38 GB ] Шифр / Сезон: 1 / Серии: 1-16 из 16 [2019 исторический SATRip] bober100 Скачать
2 | 0

28-11-2019 20:33  

Отключить всю рекламу на сайте

    Дорогой пользователь! Огромная просьба, поблагодарите релизера, оцените раздачу и оставьте свои комментарий, если Вы скачали Шифр через торрент бесплатно! Внесите свою лепту в развитие PiratBit!
    Комментировать посты могут только пользователи прошедшие не сложную регистрацию
    Показать сообщения:    

    Шифр через торрент
    Скачать бесплатно Шифр
    Шифр скачать торрент
    Шифр смотреть онлайн
    Cкачать фильм Шифр бесплатно
    Шифр скачать торрент в хорошем качестве
    Шифр смотреть онлайн бесплатно в хорошем качестве


    Вы не можете начинать темы
    Вы не можете отвечать на сообщения
    Вы не можете редактировать свои сообщения
    Вы не можете удалять свои сообщения
    Вы не можете голосовать в опросах
    Вы не можете прикреплять файлы к сообщениям
    Вы можете скачивать файлы