MEGA SALE -50% FORZA HORIZON 4 ULTIMATE+ВСЕ DLC+ОНЛАЙН всего за 599р. 299 руб. (супер цена). Внимание количество ограничено!!!

iTunes

1+1

iTunes

мы

iTunes

1

iTunes

Чернобыль

1 сезон

Ральф против интернета

Лицензия

ПШазам

Лицензия

Игра престолов

Лицензия

30
pack

ВАЖНО

!!Акция!!

Alien_RageХит недели

RePack

Resident Evil 21

ИГРА 18+

pack

RePack

Metro:Exodus

!!Акция!!

Alien_Rage

RePack

fifa19

RePack

Assassins Creed: Odyssey

RePack

NEED FOR SPEED™ PAYBACK

3 сезон

9 сезон

Бесстыжие 9 сезон

Все сериалы

все сериалы на PB.wtf

RePack

FAR CRY 5
Ребята, катастрофически не хватает 7730р. для оплаты серверов за ИЮЛЬ (всвязи с блокировками трафик упал в 3 раза), 1-2р., выручайте.
  

Кладбище домашних животных / Pet Sematary (Мэри Ламберт) [1989, ужасы, триллер, UHD BDRemux 2160p] MVO [Dolby Vision TV] pb.wtf

Кладбище домашних животных через торрент pb.wtf

Размер: 44.86 GB | Добавлен: 4 мес. 30 д. назад | Торрент скачан:7 раз
Скачать  

23-03-2019 01:42 Кладбище домашних животных Скачать торрент  

Кладбище домашних животных / Pet Sematary«A Pet Isn't Just For Life»
Год выпуска: 1989
Страна: США
Жанр: ужасы, триллер
Продолжительность: 01:42:45
Перевод: Профессиональный многоголосый
Субтитры: Отсутствуют
Режиссер: Мэри Ламберт
В ролях:

Дэйл Мидкифф (Louis Creed), Фред Гуинн (Jud Crandall), Дениз Кросби (Rachel Creed), Брэд Гринквист (Victor Pascow), Майкл Ломбард (Irwin Goldman), Мико Хьюз (Gage Creed), Блэйз Бердаль (Ellie Creed), Сьюзан Бломмарт (Missy Dandridge), Мара Кларк (Marcy Charlton), Кави Раз (Steve Masterton), Мэри Луиза Уилсон (Dory Goldman), Эндрю Хубатсек (Zelda)
Описание:
Доктор Луис Крид переезжает в маленький городок, где его семью ждет большой дом, а самого Луиса - скромная должность лечащего врача местного колледжа. Новая, просторная обитель четы Кридов расположена на краю густого, величественного леса. А в самом лесу - маленькое и мрачное кладбище, где местные жители хоронят своих домашних животных.
Рейтинг:

MPAA: R - Лицам до 17 лет обязательно присутствие взрослого
Качество: UHD BDRemux 2160p | Dolby Vision TV
Формат: MP4
Видео: HEVC, 55.7 Мбит/с, 3840x2160, 23.976 кадр/с
Аудио: Russian: 48 kHz, AC3, 3/2 (L,C,R,l,r) + LFE ch, ~640 kbps avg |Многоголосый закадровый, UHD Blu-ray|
Данный вид релизов (контейнер MP4) предназначен для встроенного в ТВ (соответственно, с поддержкой DV) плеер.
Т.Е. Можно использовать как USB flash/HDD, так и DLNA / Plex - подобные сервисы/программы. дополнительный-внешний плеер не обязателен.

Внимание!
На моделях LG 2016 возможны сюрпризы "через раз", 2017-2018 должно идти без сюрпризов )
Общее
Полное имя : Pet.Sematary.1989.UHD.BDRemux.2160p.DV.IVA.RUS.ExKinoRay.mp4
Формат : MPEG-4
Профиль формата : Base Media / Version 2
Идентификатор кодека : mp42 (mp42/iso6/isom/msdh/dby1)
Размер файла : 44,9 Гбайт
Продолжительность : 1 ч. 42 м.
Общий поток : 62,5 Мбит/сек
Дата кодирования : UTC 2019-03-22 23:29:18
Дата пометки : UTC 2019-03-22 23:29:18

Видео #1
Идентификатор : 1
Формат : HEVC
Формат/Информация : High Efficiency Video Coding
Коммерческое название : HDR10
Профиль формата : Main 10@L5.1@High
Идентификатор кодека : hev1
Идентификатор кодека/Информация : High Efficiency Video Coding
Продолжительность : 1 ч. 42 м.
Битрейт : 55,7 Мбит/сек
Ширина : 3840 пикселей
Высота : 2160 пикселей
Соотношение сторон : 16:9
Режим частоты кадров : Постоянный
Частота кадров : 23,976 (24000/1001) кадра/сек
Цветовое пространство : YUV
Субдискретизация насыщенности : 4:2:0 (Type 2)
Битовая глубина : 10 бит
Бит/(Пиксели*Кадры) : 0.280
Размер потока : 39,9 Гбайт (89%)
Default : Нет
Дата кодирования : UTC 2019-03-22 23:29:18
Дата пометки : UTC 2019-03-22 23:29:18
Цветовой диапазон : Limited
Основные цвета : BT.2020
Характеристики трансфера : PQ
Коэффициенты матрицы : BT.2020 non-constant
MasteringDisplay_ColorPrimaries : Display P3
MasteringDisplay_Luminance : min: 0.0001 cd/m2, max: 1000 cd/m2
Codec configuration box : hvcC

Видео #2
Идентификатор : 2
Формат : HEVC
Формат/Информация : High Efficiency Video Coding
Коммерческое название : HDR10
Профиль формата : Main 10@L5.1@High
Dolby Vision : 1.0, dvhe.07.06, EL+RPU
Идентификатор кодека : dvhe
Идентификатор кодека/Информация : High Efficiency Video Coding with Dolby Vision
Продолжительность : 1 ч. 42 м.
Битрейт : 6211 Кбит/сек
Ширина : 1920 пикселей
Высота : 1080 пикселей
Соотношение сторон : 16:9
Режим частоты кадров : Постоянный
Частота кадров : 23,976 (24000/1001) кадра/сек
Цветовое пространство : YUV
Субдискретизация насыщенности : 4:2:0 (Type 2)
Битовая глубина : 10 бит
Бит/(Пиксели*Кадры) : 0.125
Размер потока : 4,45 Гбайт (10%)
Default : Нет
Дата кодирования : UTC 2019-03-22 23:29:18
Дата пометки : UTC 2019-03-22 23:29:18
Цветовой диапазон : Limited
Основные цвета : BT.2020
Характеристики трансфера : PQ
Коэффициенты матрицы : BT.2020 non-constant
MasteringDisplay_ColorPrimaries : Display P3
MasteringDisplay_Luminance : min: 0.0001 cd/m2, max: 1000 cd/m2
Codec configuration box : hvcC+dvcC

Аудио
Идентификатор : 3
Формат : AC-3
Формат/Информация : Audio Coding 3
Коммерческое название : Dolby Digital
Идентификатор кодека : ac-3
Продолжительность : 1 ч. 42 м.
Вид битрейта : Постоянный
Битрейт : 640 Кбит/сек
Каналы : 6 каналов
Channel layout : L R C LFE Ls Rs
Частота : 48,0 КГц
Частота кадров : 31,250 кадров/сек (1536 SPF)
Битовая глубина : 16 бит
Метод сжатия : С потерями
Размер потока : 470 Мбайт (1%)
Язык : Russian
ServiceKind/String : Complete Main
Default : Нет
Дата кодирования : UTC 2019-03-22 23:29:18
Дата пометки : UTC 2019-03-22 23:29:18
pb.wtf



Скачать Кладбище домашних животных через торрент https://d.radikal.ru/d21/1903/c7/58469ff843f8.png Скачать фильм Кладбище домашних животных через торрент бесплантно в хорошем качестве Описание: Доктор Луис Крид переезжает в маленький городок, где его семью ждет большой дом, а самого Луиса - скромная должность лечащего ... 5 10 1
Торрент: Зарегистрирован [2019-03-23 01:42] · скачан: 7 раз
Статус: √ проверено
Размер: 44.86 GB
Как cкачать? Как скачать Кладбище домашних животных через торрент | qTorrent

% Раздел Тема Автор DL S | L
Фильмы (HD 720p, 1080p) (48-60 fps) [ 4.09 GB ] Кладбище домашних животных / Pet Sematary [2019 BDRip-HEVC 1080p 60fps Dub MVO Original] Tiberiumsun69 Скачать
6 | 0
Ultra HD (UHD: 2K, 4K, 8K) — видео сверхвысокой чёткости [ 53.3 GB ] Кладбище домашних животных / Pet Sematary [2019 UHD BDRemux 2160p] [Dolby Vision] DUB [] bober100 Скачать
2 | 0
Фильмы 2019 [DVDrip, WEB-DLRip, HDrip] (DUB, MVO) [ 2.18 GB ] Кладбище домашних животных / Pet Sematary [2019 BDRip] DUB [ BD EUR] bober100 Скачать
10 | 0
Фильмы (Blu-ray, BD-Remux, HDDVD) [ 44.36 GB ] Кладбище домашних животных / Pet Sematary [2019 Blu-ray EUR 1080p] DUB [] bober100 Скачать
1 | 0
Фильмы 2019 [DVDrip, WEB-DLRip, HDrip] (DUB, MVO) [ 715 MB ] Кладбище домашних животных / Pet Sematary [2019 HDRip "BD EUR"] coc900 Скачать
1 | 0
Фильмы [HD 720p, 1080p] (Хороший звук DUB, MVO) [ 14.39 GB ] Кладбище домашних животных / Pet Sematary [2019 BDRip 1080p] DUB [] + 2xMVO sheker187 Скачать
17 | 4
Фильмы 2019 [DVDrip, WEB-DLRip, HDrip] (DUB, MVO) [ 2.19 GB ] Кладбище домашних животных / Pet Sematary [2019 BDRip-AVC] DUB [] + 2xMVO sheker187 Скачать
8 | 0


>> Регистрируемся здесь <<






Отзывы и комментарии о схеме читаем и пишем здесь: ---> Отзывы и комментарии о схеме

Новые благодарочки в телеграм довольных пользователей:
скриншот   скриншот   скриншот   скриншот   скриншот
    Дорогой пользователь! Огромная просьба, поблагодарите релизера, оцените раздачу и оставьте свои комментарий, если Вы скачали Кладбище домашних животных через торрент бесплатно! Внесите свою лепту в развитие PiratBit!
    Комментировать посты могут только пользователи прошедшие не сложную регистрацию
    Показать сообщения:    

    Кладбище домашних животных через торрент
    Скачать бесплатно Кладбище домашних животных
    Кладбище домашних животных скачать торрент
    Кладбище домашних животных смотреть онлайн
    Cкачать фильм Кладбище домашних животных бесплатно
    Кладбище домашних животных скачать торрент в хорошем качестве
    Кладбище домашних животных смотреть онлайн бесплатно в хорошем качестве


    Вы не можете начинать темы
    Вы не можете отвечать на сообщения
    Вы не можете редактировать свои сообщения
    Вы не можете удалять свои сообщения
    Вы не можете голосовать в опросах
    Вы не можете прикреплять файлы к сообщениям
    Вы можете скачивать файлы