Ссылка на приватное зеркало всего за 1$. Внимание количество ограничено!!!

OK

1+1

iTunes

мы

OK

1

WEB-DLRip

Джокер

Пифагор

Ведьмак / The Witcher сериал

iTunes

ПШазам

ОК

Оно 2

iTunes

30
pack

Вам бонус

ВАЖНО

!!Акция!!

Alien_RageХит недели

RePack

Resident Evil 21

ИГРА 18+

pack

RePack

jed

RePack

fifa19

RePack

Assassins Creed: Odyssey

RePack

NEED FOR SPEED™ PAYBACK

4 сезон

9 сезон

Бесстыжие 9 сезон

Все сериалы

все сериалы на PB.wtf

RePack

FAR CRY 5
  

Расшифровка разума / Mind Decoding (Юй Сянъюань, Дин Инъань) [2016, Ужасы, триллер, WEBRip 720p] MVO [КОЛОБОК] pb.wtf

Расшифровка разума через торрент pb.wtf

Размер: 3.52 GB | Добавлен: 10 мес. назад | Торрент скачан:41 раз
Скачать  

23-03-2019 02:43 Расшифровка разума Скачать торрент  

Расшифровка разума / Mind DecodingГод выпуска: 2016
Страна: Китай
Жанр: Ужасы, триллер
Продолжительность: 01:44:59
Перевод: Любительский (многоголосый) | КОЛОБОК
Субтитры: отсутствуют

Режиссер: Юй Сянъюань, Дин Инъань

rating

В ролях:

Фангтинг Цзян, Сяохун Ли, Сяочунь Ю

Описание:

Провинциальная психиатрическая больница расположена в пустыне, где уровень строгий. Рано утром пациентка Го Цзя странно похитила старшую медсестру Ся Сюэ, утверждая, что мужчина, который любит ее больше всего, ждал ее у двери. Согласно архивам, этот человек был мертв уже много лет. Вскоре Чэнь Мо, который страдал от серьезной склонности к насилию, остался в зле и страхе каждого доктора, скрытого в тени.

Качество: WEBRip 720p
Формат: MKV

Видео: h.264,4 412 Кбит/с, 1280x536
Аудио#1: Русский, (AC3, 2 ch, 384 Кбит/с)
скриншот  скриншот  скриншот  

Общее
Уникальный идентификатор : 180957887664553526536698743077581404187 (0x882338B11E7B5B4D8E3AD166AFA0B81B)
Полное имя : D:\mind decoding.2o18.Pk.WEBRip.72Op.mkv
Формат : Matroska
Версия формата : Version 2
Размер файла : 3,52 Гбайт
Продолжительность : 1 ч. 44 м.
Режим общего битрейта : Переменный
Общий поток : 4798 Кбит/сек
Дата кодирования : UTC 2019-03-22 19:35:03
Программа кодирования : mkvmerge v8.3.0 ('Over the Horizon') 64bit
Библиотека кодирования : libebml v1.3.1 + libmatroska v1.4.2

Видео
Идентификатор : 1
Формат : AVC
Формат/Информация : Advanced Video Codec
Профиль формата : High@L4.1
Параметр CABAC формата : Да
Параметр RefFrames формата : 4 кадра
Идентификатор кодека : V_MPEG4/ISO/AVC
Продолжительность : 1 ч. 44 м.
Вид битрейта : Переменный
Битрейт : 4319 Кбит/сек
Максимальный битрейт : 5000 Кбит/сек
Ширина : 1280 пикселей
Высота : 536 пикселей
Соотношение сторон : 2,40:1
Режим частоты кадров : Постоянный
Частота кадров : 23,976 (24000/1001) кадра/сек
Стандарт вещания : Component
Цветовое пространство : YUV
Субдискретизация насыщенности : 4:2:0
Битовая глубина : 8 бит
Тип развёртки : Прогрессивная
Бит/(Пиксели*Кадры) : 0.263
Размер потока : 3,17 Гбайт (90%)
Default : Да
Forced : Нет
Цветовой диапазон : Limited
Основные цвета : BT.709
Характеристики трансфера : BT.709
Коэффициенты матрицы : BT.709

Аудио
Идентификатор : 2
Формат : AC-3
Формат/Информация : Audio Coding 3
Расширение режима : CM (complete main)
Параметр Endianness формата : Big
Идентификатор кодека : A_AC3
Продолжительность : 1 ч. 44 м.
Вид битрейта : Постоянный
Битрейт : 384 Кбит/сек
Каналы : 2 канала
Расположение каналов : Front: L R
Частота : 48,0 КГц
Частота кадров : 31,250 кадров/сек (1536 spf)
Метод сжатия : С потерями
Размер потока : 288 Мбайт (8%)
Default : Да
Forced : Нет

pb.wtf



Скачать Расшифровка разума через торрент https://a.radikal.ru/a19/1903/7d/eea17f3844b9.jpg Скачать фильм Расшифровка разума через торрент бесплантно в хорошем качестве Описание: Провинциальная психиатрическая больница расположена в пустыне, где уровень строгий. Рано утром пациентка Го Цзя странно похитила ... 10 10 3
Торрент: Зарегистрирован [2019-03-23 02:43] · скачан: 41 раз
Статус: T временная
Размер: 3.52 GB
Как cкачать? Как скачать Расшифровка разума через торрент | qTorrent

% Раздел Тема Автор DL S | L
T Фильмы (мультфильмы) cо спонсором показа (Новинки AVI/MKV) [ 1.37 GB ] Расшифровка разума / Mind Decoding [2016 WEBRip] MVO [КОЛОБОК] bober100 Скачать
1 | 0

28-11-2019 20:33  

Отключить всю рекламу на сайте

25-03-2019 00:54 Расшифровка разума Скачать торрент  

Вот гугл перевод прям рулит. Доходчиво и в то же время.... ни хрена не понятно...pb.wtf



25-03-2019 19:14 Расшифровка разума Скачать торрент  

Очень интересно, но я нихрена не понял.pb.wtf



27-03-2019 17:18 Расшифровка разума Скачать торрент  

Чэнь Мо (сокращенно - ЧМО)…
далее по текстуpb.wtf



    Дорогой пользователь! Огромная просьба, поблагодарите релизера, оцените раздачу и оставьте свои комментарий, если Вы скачали Расшифровка разума через торрент бесплатно! Внесите свою лепту в развитие PiratBit!
    Комментировать посты могут только пользователи прошедшие не сложную регистрацию
    Показать сообщения:    

    Расшифровка разума через торрент
    Скачать бесплатно Расшифровка разума
    Расшифровка разума скачать торрент
    Расшифровка разума смотреть онлайн
    Cкачать фильм Расшифровка разума бесплатно
    Расшифровка разума скачать торрент в хорошем качестве
    Расшифровка разума смотреть онлайн бесплатно в хорошем качестве


    Вы не можете начинать темы
    Вы не можете отвечать на сообщения
    Вы не можете редактировать свои сообщения
    Вы не можете удалять свои сообщения
    Вы не можете голосовать в опросах
    Вы не можете прикреплять файлы к сообщениям
    Вы можете скачивать файлы