Marvel's Avengers Deluxe Edition (супер цена) 159р. Внимание количество ограничено!!!

2 сезон

iTunes

iTunes

1

iTunes

iTunes

iTunes

WEBRip

iTunes

30
pack

Новость дня

ВАЖНО

!!Акция!!

Alien_RageХит недели

RePack

Horizon Zero Dawn

ИГРА 18+

pack

RePack

jed

!!Акция!!

Alien_Rage

RePack

fifa19

RePack

Assassins Creed: Odyssey

RePack

NEED FOR SPEED™ PAYBACK

4 сезон

9 сезон

Бесстыжие 9 сезон

Все сериалы

все сериалы на PB.wtf

RePack

FAR CRY 5
  

Чоло / Xolo (Джузеппе Валентино) [2017, криминал, WEB-DL 720p] MVO ["Синема УС"] pb.wtf

Чоло через торрент pb.wtf

Размер: 3.13 GB | Добавлен: 1 год 5 мес. назад | Торрент скачан:33 раза
Скачать  

23-03-2019 05:01 Чоло Скачать торрент  

Чоло / XoloГод выпуска: 2017
Страна: Италия
Жанр: криминал
Продолжительность: 01:19:27
Перевод: Любительский (многоголосый) | "Синема УС"
Субтитры: отсутствуют

Режиссер: Джузеппе Валентино

rating

В ролях:

Даймондо Бранди, Креститель Эликагарай, Анжела Нейман

Описание:

Юг Италии. Роза - женщина с тяжёлым прошлым. Джино, любовник Розы - жестокий землевладелец, который вовлечён в собачьи бои. Когда Роза встречает Натаниэля, французского бродягу, её жизнь принимает неожиданный поворот.

Качество: WEB-DL 720p
Формат: MKV

Видео: h.264,5 251 Кбит/с, 1280x720
Аудио#1: Русский, (AC3, 2 ch, 384 Кбит/с)
скриншот  скриншот  скриншот  

Общее
Уникальный идентификатор : 247997715048008974451119079705659365530 (0xBA929F5FC4AB45C8BEFD0A2CB5B4D89A)
Полное имя : D:\Xolo.2017.P.WEB-DL.72Op.mkv
Формат : Matroska
Версия формата : Version 2
Размер файла : 3,13 Гбайт
Продолжительность : 1 ч. 19 м.
Режим общего битрейта : Переменный
Общий поток : 5637 Кбит/сек
Дата кодирования : UTC 2019-03-22 03:17:45
Программа кодирования : mkvmerge v8.3.0 ('Over the Horizon') 64bit
Библиотека кодирования : libebml v1.3.1 + libmatroska v1.4.2

Видео
Идентификатор : 1
Формат : AVC
Формат/Информация : Advanced Video Codec
Профиль формата : High@L4.1
Параметр CABAC формата : Да
Параметр RefFrames формата : 4 кадра
Идентификатор кодека : V_MPEG4/ISO/AVC
Продолжительность : 1 ч. 19 м.
Вид битрейта : Переменный
Битрейт : 5251 Кбит/сек
Максимальный битрейт : 6000 Кбит/сек
Ширина : 1280 пикселей
Высота : 720 пикселей
Соотношение сторон : 16:9
Режим частоты кадров : Постоянный
Частота кадров : 23,976 (24000/1001) кадра/сек
Стандарт вещания : Component
Цветовое пространство : YUV
Субдискретизация насыщенности : 4:2:0
Битовая глубина : 8 бит
Тип развёртки : Прогрессивная
Бит/(Пиксели*Кадры) : 0.233
Размер потока : 2,85 Гбайт (91%)
Default : Да
Forced : Нет
Цветовой диапазон : Limited
Основные цвета : BT.709
Характеристики трансфера : BT.709
Коэффициенты матрицы : BT.709

Аудио
Идентификатор : 2
Формат : AC-3
Формат/Информация : Audio Coding 3
Расширение режима : CM (complete main)
Параметр Endianness формата : Big
Идентификатор кодека : A_AC3
Продолжительность : 1 ч. 19 м.
Вид битрейта : Постоянный
Битрейт : 384 Кбит/сек
Каналы : 2 канала
Расположение каналов : Front: L R
Частота : 48,0 КГц
Частота кадров : 31,250 кадров/сек (1536 spf)
Метод сжатия : С потерями
Размер потока : 218 Мбайт (7%)
Default : Да
Forced : Нет

pb.wtf



Скачать Чоло через торрент https://b.radikal.ru/b05/1903/20/adaaec6206ec.jpg Скачать фильм Чоло через торрент бесплантно в хорошем качестве Описание: Юг Италии. Роза - женщина с тяжёлым прошлым. Джино, любовник Розы - жестокий землевладелец, который вовлечён в собачьи бои. Когда ... 10 10 2
Торрент: Зарегистрирован [2019-03-23 05:02] · скачан: 33 раз
Статус: T временная
Размер: 3.13 GB
Как cкачать? Как скачать Чоло через торрент | qTorrent

% Раздел Тема Автор DL S | L
T Фильмы (мультфильмы) cо спонсором показа (Новинки AVI/MKV) [ 1.37 GB ] Чоло / Xolo [2017 WEB-DLRip] MVO ["Синема УС"] bober100 Скачать
2 | 0

28-11-2019 20:33  

Отключить всю рекламу на сайте

    Дорогой пользователь! Огромная просьба, поблагодарите релизера, оцените раздачу и оставьте свои комментарий, если Вы скачали Чоло через торрент бесплатно! Внесите свою лепту в развитие PiratBit!
    Комментировать посты могут только пользователи прошедшие не сложную регистрацию
    Показать сообщения:    

    Чоло через торрент
    Скачать бесплатно Чоло
    Чоло скачать торрент
    Чоло смотреть онлайн
    Cкачать фильм Чоло бесплатно
    Чоло скачать торрент в хорошем качестве
    Чоло смотреть онлайн бесплатно в хорошем качестве


    Вы не можете начинать темы
    Вы не можете отвечать на сообщения
    Вы не можете редактировать свои сообщения
    Вы не можете удалять свои сообщения
    Вы не можете голосовать в опросах
    Вы не можете прикреплять файлы к сообщениям
    Вы можете скачивать файлы