Ссылка на приватное зеркало всего за 1$. Внимание количество ограничено!!!

iTunes

iTunes

iTunes

1

iTunes

iTunes

iTunes

WEBRip

iTunes

30
pack

$ от Little Big

ВАЖНО

!!Акция!!

Alien_RageХит недели

RePack

Resident Evil 21

ИГРА 18+

pack

RePack

jed

!!Акция!!

Alien_Rage

RePack

fifa19

RePack

Assassins Creed: Odyssey

RePack

NEED FOR SPEED™ PAYBACK

4 сезон

9 сезон

Бесстыжие 9 сезон

Все сериалы

все сериалы на PB.wtf

RePack

FAR CRY 5
  

Эми Шумер: личный рост / Amy Schumer Growing (Маркус Рабой) [2019, комедия, WEB-DL 720p] MVO ["Синема УС"] pb.wtf

Эми Шумер: личный рост через торрент pb.wtf

Размер: 2.47 GB | Добавлен: 1 год 4 мес. назад | Торрент скачан:28 раз
Скачать  

23-03-2019 05:16 Эми Шумер: личный рост Скачать торрент  

Эми Шумер: личный рост / Amy Schumer Growing Год выпуска: 2019
Страна: США
Жанр: комедия
Продолжительность: 01:01:37
Перевод: Любительский (многоголосый) | "Синема УС"
Субтитры: отсутствуют

Режиссер: Маркус Рабой

rating

В ролях:

Эми Шумер

Описание:

Эми Шумер вживую выступала в Чикаго, где она шутит о браке, беременности и личностном росте.

Качество: WEB-DL 720p
Формат: MKV

Видео: h.264,5 277 kb/s, 1280x720
Аудио: Русский, (AC3, 2 ch, 384 Кбит/с)
скриншот  скриншот  скриншот  

Общее
Уникальный идентификатор : 245054177463627139792566621292379949784 (0xB85BB7C431C1727C982C66D91FBACAD8)
Полное имя : D:\Amy.Schumer.Growing.2019.P.WEB-DL.72Op_KOSHARA.mkv
Формат : Matroska
Версия формата : Version 2
Размер файла : 2,47 Гбайт
Продолжительность : 1 ч. 1 м.
Режим общего битрейта : Переменный
Общий поток : 5727 Кбит/сек
Дата кодирования : UTC 2019-03-22 11:27:07
Программа кодирования : mkvmerge v8.3.0 ('Over the Horizon') 64bit
Библиотека кодирования : libebml v1.3.1 + libmatroska v1.4.2

Видео
Идентификатор : 1
Формат : AVC
Формат/Информация : Advanced Video Codec
Профиль формата : High@L4.1
Параметр CABAC формата : Да
Параметр RefFrames формата : 4 кадра
Идентификатор кодека : V_MPEG4/ISO/AVC
Продолжительность : 1 ч. 1 м.
Вид битрейта : Переменный
Битрейт : 5277 Кбит/сек
Максимальный битрейт : 6000 Кбит/сек
Ширина : 1280 пикселей
Высота : 720 пикселей
Соотношение сторон : 16:9
Режим частоты кадров : Постоянный
Частота кадров : 23,976 (24000/1001) кадра/сек
Стандарт вещания : Component
Цветовое пространство : YUV
Субдискретизация насыщенности : 4:2:0
Битовая глубина : 8 бит
Тип развёртки : Прогрессивная
Бит/(Пиксели*Кадры) : 0.234
Размер потока : 2,22 Гбайт (90%)
Default : Да
Forced : Нет
Цветовой диапазон : Limited
Основные цвета : BT.709
Характеристики трансфера : BT.709
Коэффициенты матрицы : BT.709

Аудио
Идентификатор : 2
Формат : AC-3
Формат/Информация : Audio Coding 3
Расширение режима : CM (complete main)
Параметр Endianness формата : Big
Идентификатор кодека : A_AC3
Продолжительность : 1 ч. 1 м.
Вид битрейта : Постоянный
Битрейт : 448 Кбит/сек
Каналы : 2 канала
Расположение каналов : Front: L R
Частота : 48,0 КГц
Частота кадров : 31,250 кадров/сек (1536 spf)
Метод сжатия : С потерями
Размер потока : 197 Мбайт (8%)
Default : Да
Forced : Нет

pb.wtf



Скачать Эми Шумер: личный рост через торрент https://b.radikal.ru/b01/1903/5e/ae5893283f5b.jpg Скачать фильм Эми Шумер: личный рост через торрент бесплантно в хорошем качестве Описание: Эми Шумер вживую выступала в Чикаго, где она шутит о браке, беременности и личностном ... 10 10 3
Торрент: Зарегистрирован [2019-03-23 05:16] · скачан: 28 раз
Статус: T временная
Размер: 2.47 GB
Как cкачать? Как скачать Эми Шумер: личный рост через торрент | qTorrent

% Раздел Тема Автор DL S | L
T Фильмы (мультфильмы) cо спонсором показа (Новинки AVI/MKV) [ 1.34 GB ] Эми Шумер: личный рост / Amy Schumer Growing [2019 WEB-DLRip] MVO ["Синема УС"] bober100 Скачать
1 | 0

28-11-2019 20:33  

Отключить всю рекламу на сайте

    Дорогой пользователь! Огромная просьба, поблагодарите релизера, оцените раздачу и оставьте свои комментарий, если Вы скачали Эми Шумер: личный рост через торрент бесплатно! Внесите свою лепту в развитие PiratBit!
    Комментировать посты могут только пользователи прошедшие не сложную регистрацию
    Показать сообщения:    

    Эми Шумер: личный рост через торрент
    Скачать бесплатно Эми Шумер: личный рост
    Эми Шумер: личный рост скачать торрент
    Эми Шумер: личный рост смотреть онлайн
    Cкачать фильм Эми Шумер: личный рост бесплатно
    Эми Шумер: личный рост скачать торрент в хорошем качестве
    Эми Шумер: личный рост смотреть онлайн бесплатно в хорошем качестве


    Вы не можете начинать темы
    Вы не можете отвечать на сообщения
    Вы не можете редактировать свои сообщения
    Вы не можете удалять свои сообщения
    Вы не можете голосовать в опросах
    Вы не можете прикреплять файлы к сообщениям
    Вы можете скачивать файлы