Ссылка на приватное зеркало всего за 1$. Внимание количество ограничено!!!

OK

1+1

iTunes

мы

OK

1

WEB-DLRip

Джокер

Пифагор

Ведьмак / The Witcher сериал

iTunes

ПШазам

ОК

Оно 2

iTunes

30
pack

Вам бонус

ВАЖНО

!!Акция!!

Alien_RageХит недели

RePack

Resident Evil 21

ИГРА 18+

pack

RePack

jed

RePack

fifa19

RePack

Assassins Creed: Odyssey

RePack

NEED FOR SPEED™ PAYBACK

4 сезон

9 сезон

Бесстыжие 9 сезон

Все сериалы

все сериалы на PB.wtf

RePack

FAR CRY 5
  

Идеальная Мать / The Perfect One / Mommy Group Murder (Ник Эверхарт) [2019, Триллер, HDTVRip 720p] MVO ["Синема УС"] pb.wtf

Идеальная Мать через торрент pb.wtf

Размер: 2.85 GB | Добавлен: 10 мес. назад | Торрент скачан:41 раз
Скачать  

23-03-2019 05:28 Идеальная Мать Скачать торрент  

Идеальная Мать / The Perfect One / Mommy Group Murder Год выпуска: 2019
Страна: США
Жанр: Триллер
Продолжительность: 01:25:07
Перевод: Любительский (многоголосый) | "Синема УС"
Субтитры: отсутствуют

Режиссер: Ник Эверхарт

rating

В ролях:

Хелена Мэттссон, Леа Пайпс, Николь Галисия, Райан Карнес, Бэйли Энн Бордерс, Кейт Манси, Лиза Торнхилл, Эйприл Биллингсли, Джош Уинот, Сара Кливленд

Описание:

Натали присоединяется к группе мам, чтоб справиться со стрессом материнства, которое легло на её плечи после свадьбы. Но за всё нужно платить. И когда мужа одной из её подруг находят мёртвым, она понимает, что в этом замешана одна из мам. И теперь ей нужно докопаться до правды, прежде чем пострадает её собственная семья.

Качество: HDTVRip 720p
Формат: MKV

Видео: h.264, 4 406 Кбит/с, 1280x720
Аудио: Русский, (AC3, 2 ch, 384 Кбит/с)
скриншот  скриншот  скриншот  

Общее
Уникальный идентификатор : 242418983810454735656877028223192923625 (0xB66032B02EFE727BB8AFAC0E2907FDE9)
Полное имя : D:\Mommy.Group.Murder.2019.P.HDTV.72Op.mkv
Формат : Matroska
Версия формата : Version 2
Размер файла : 2,85 Гбайт
Продолжительность : 1 ч. 25 м.
Режим общего битрейта : Переменный
Общий поток : 4792 Кбит/сек
Дата кодирования : UTC 2019-03-22 11:30:27
Программа кодирования : mkvmerge v8.3.0 ('Over the Horizon') 64bit
Библиотека кодирования : libebml v1.3.1 + libmatroska v1.4.2

Видео
Идентификатор : 1
Формат : AVC
Формат/Информация : Advanced Video Codec
Профиль формата : High@L4.1
Параметр CABAC формата : Да
Параметр RefFrames формата : 4 кадра
Идентификатор кодека : V_MPEG4/ISO/AVC
Продолжительность : 1 ч. 25 м.
Вид битрейта : Переменный
Битрейт : 4406 Кбит/сек
Максимальный битрейт : 5000 Кбит/сек
Ширина : 1280 пикселей
Высота : 720 пикселей
Соотношение сторон : 16:9
Режим частоты кадров : Постоянный
Частота кадров : 23,976 (24000/1001) кадра/сек
Стандарт вещания : Component
Цветовое пространство : YUV
Субдискретизация насыщенности : 4:2:0
Битовая глубина : 8 бит
Тип развёртки : Прогрессивная
Бит/(Пиксели*Кадры) : 0.195
Размер потока : 2,56 Гбайт (90%)
Default : Да
Forced : Нет
Цветовой диапазон : Limited
Основные цвета : BT.709
Характеристики трансфера : BT.709
Коэффициенты матрицы : BT.709

Аудио
Идентификатор : 2
Формат : AC-3
Формат/Информация : Audio Coding 3
Расширение режима : CM (complete main)
Параметр Endianness формата : Big
Идентификатор кодека : A_AC3
Продолжительность : 1 ч. 25 м.
Вид битрейта : Постоянный
Битрейт : 384 Кбит/сек
Каналы : 2 канала
Расположение каналов : Front: L R
Частота : 48,0 КГц
Частота кадров : 31,250 кадров/сек (1536 spf)
Метод сжатия : С потерями
Размер потока : 234 Мбайт (8%)
Default : Да
Forced : Нет

pb.wtf



Скачать Идеальная Мать через торрент https://b.radikal.ru/b35/1903/1b/6ffceb9213ca.jpg Скачать фильм Идеальная Мать через торрент бесплантно в хорошем качестве Описание: Натали присоединяется к группе мам, чтоб справиться со стрессом материнства, которое легло на её плечи после свадьбы. Но за всё ... 10 10 2
Торрент: Зарегистрирован [2019-03-23 05:28] · скачан: 41 раз
Статус: T временная
Размер: 2.85 GB
Как cкачать? Как скачать Идеальная Мать через торрент | qTorrent

% Раздел Тема Автор DL S | L
T Фильмы (мультфильмы) cо спонсором показа (Новинки AVI/MKV) [ 1.37 GB ] Идеальная Мать / The Perfect One / Mommy Group Murder [2019 HDTVRip] MVO ["Синема УС"] bober100 Скачать
1 | 0

28-11-2019 20:33  

Отключить всю рекламу на сайте

    Дорогой пользователь! Огромная просьба, поблагодарите релизера, оцените раздачу и оставьте свои комментарий, если Вы скачали Идеальная Мать через торрент бесплатно! Внесите свою лепту в развитие PiratBit!
    Комментировать посты могут только пользователи прошедшие не сложную регистрацию
    Показать сообщения:    

    Идеальная Мать через торрент
    Скачать бесплатно Идеальная Мать
    Идеальная Мать скачать торрент
    Идеальная Мать смотреть онлайн
    Cкачать фильм Идеальная Мать бесплатно
    Идеальная Мать скачать торрент в хорошем качестве
    Идеальная Мать смотреть онлайн бесплатно в хорошем качестве


    Вы не можете начинать темы
    Вы не можете отвечать на сообщения
    Вы не можете редактировать свои сообщения
    Вы не можете удалять свои сообщения
    Вы не можете голосовать в опросах
    Вы не можете прикреплять файлы к сообщениям
    Вы можете скачивать файлы