новый адрес
Мега распродажа FORZA HORIZON 4 ULTIMATE+ВСЕ DLC+ОНЛАЙН всего за 499р. 349 руб. (супер цена). Внимание количество ограничено!!!

iTunes

1+1

iTunes

мы

iTunes

1

iTunes

Чернобыль

iTunes

Ральф против интернета

Лицензия

ПШазам

Лицензия

Оно 2

Лицензия

30
pack

ВАЖНО

!!Акция!!

Alien_RageХит недели

RePack

Resident Evil 21

ИГРА 18+

pack

RePack

Metro:Exodus

!!Акция!!

Alien_Rage

RePack

fifa19

RePack

Assassins Creed: Odyssey

RePack

NEED FOR SPEED™ PAYBACK

3 сезон

9 сезон

Бесстыжие 9 сезон

Все сериалы

все сериалы на PB.wtf

RePack

FAR CRY 5
Ребята, катастрофически не хватает 1900р. для оплаты серверов за Октябрь (всвязи с блокировками трафик упал в 3 раза), 1-2р., выручайте.
  

Большие и маленькие (Мария Федорова) [1963, СССР, драма, DVDRip от AVP Studio] pb.wtf

Большие и маленькие через торрент pb.wtf

Размер: 1.09 GB | Добавлен: 7 мес. назад | Торрент скачан:5 раз
Скачать  

23-03-2019 07:31 Большие и маленькие Скачать торрент  

Большие и маленькие
Страна: СССР
Производство: Киностудия им. Горького

Жанр: драма
Год выпуска: 1963
Продолжительность: 01:27:36

Перевод: Не требуется
Cубтитры: нет
Оригинальная аудиодорожка: русский

Режиссер: Мария Федорова

В ролях:
Олеся Иванова, Василий Горчаков, Нина Меньшикова, Николай Бармин, Лев Свердлин, Витя Климов, Владимир Трошин, Любовь Виролайнен, Саша Чижик, Софья Павлова, Геннадий Некрасов, Юра Шаров, Алена Сеплянская, Юрий Пузырёв, Василий Ливанов, Александр Машовец, Анатолий Соловьёв, Зоя Толбузина...
Об актёрах подробней

Описание:
По мотивам "Книги для родителей" А.Макаренко о жизни трудных детей.
Несколько новелл этого фильма рассказывают об истории сложных взаимоотношений трудных детей и их родителей.

Источник: DVD5 R5
Качество видео: DVDRip
Формат видео: AVI

Видео: 704х528 (4:3), 25,000 fps, XviD ~ 1579 kbps avg, 0.170 bit/pixel
Аудио: 48 kHz, Dolby Digital AC3 2.0, 192 kbps

Раздача от:
Общее
Полное имя : Bolshie.i.malenkie.1963.DVDRip_[New-team]_by_AVP_Studio.avi
Формат : AVI
Формат/Информация : Audio Video Interleave
Размер файла : 1,09 Гбайт
Продолжительность : 1 ч. 27 м.
Общий поток : 1781 Кбит/сек
Программа кодирования : VirtualDubMod 1.5.10.3 | www.virtualdub-fr.org || (build 2550/release)
Библиотека кодирования : VirtualDubMod build 2550/release

Видео
Идентификатор : 0
Формат : MPEG-4 Visual
Профиль формата : Advanced Simple@L5
Настройки формата : BVOP1 / Custom Matrix
Параметр BVOP формата : 1
Параметр QPel формата : Нет
Параметр GMC формата : Без точки перехода
Параметр матрицы формата : Выборочная
Идентификатор кодека : XVID
Идентификатор кодека/Подсказка : XviD
Продолжительность : 1 ч. 27 м.
Битрейт : 1579 Кбит/сек
Ширина : 704 пикселя
Высота : 528 пикселей
Соотношение сторон : 4:3
Частота кадров : 25,000 кадров/сек
Цветовое пространство : YUV
Субдискретизация насыщенности : 4:2:0
Битовая глубина : 8 бит
Тип развёртки : Прогрессивная
Метод сжатия : С потерями
Бит/(Пиксели*Кадры) : 0.170
Размер потока : 989 Мбайт (89%)
Библиотека кодирования : XviD 73

Аудио
Идентификатор : 1
Формат : AC-3
Формат/Информация : Audio Coding 3
Коммерческое название : Dolby Digital
Идентификатор кодека : 2000
Продолжительность : 1 ч. 27 м.
Вид битрейта : Постоянный
Битрейт : 192 Кбит/сек
Каналы : 2 канала
Channel layout : L R
Частота : 48,0 КГц
Частота кадров : 31,250 кадров/сек (1536 SPF)
Битовая глубина : 16 бит
Метод сжатия : С потерями
Размер потока : 120 Мбайт (11%)
Выравнивание : Разделение по промежуткам
Продолжительность промежутка : 40 мс. (1,00 видеокадр)
Время предзагрузки промежутка : 500 мс
pb.wtf



Скачать Большие и маленькие через торрент http://picplus.ru/img/1903/23/3b2408c5.png Скачать фильм Большие и маленькие через торрент бесплантно в хорошем качестве Описание:По мотивам "Книги для родителей" А.Макаренко о жизни трудных детей.Несколько новелл этого фильма рассказывают об истории сложных ... 10 10 2
Торрент: Зарегистрирован [2019-03-23 07:31] · скачан: 5 раз
Статус: √ проверено
Размер: 1.09 GB
Как cкачать? Как скачать Большие и маленькие через торрент | qTorrent

% Раздел Тема Автор DL S | L
Кино СССР [ 1.09 GB ] Большие и маленькие [1963 СССР DVDRip-AVC от AVP Studio] AVP Studio Скачать
1 | 0
Гонзо [ 2.91 GB ] Большие и Маленькие / Big And Small [2015 Gonzo 18+ Teens Big Cocks Compilation DVDRip Оригинал] Pir@tya2010 Скачать
1 | 0
Фильмы 2011 [ 1.53 GB ] Шансы большие и маленькие / Patatje Oorlog [2011 DVDRip] makarevich Скачать
1 | 0


>> Регистрируемся здесь <<






Отзывы и комментарии о схеме читаем и пишем здесь: ---> Отзывы и комментарии о схеме

Новые благодарочки в телеграм довольных пользователей:
скриншот   скриншот   скриншот   скриншот   скриншот
    Дорогой пользователь! Огромная просьба, поблагодарите релизера, оцените раздачу и оставьте свои комментарий, если Вы скачали Большие и маленькие через торрент бесплатно! Внесите свою лепту в развитие PiratBit!
    Комментировать посты могут только пользователи прошедшие не сложную регистрацию
    Показать сообщения:    

    Большие и маленькие через торрент
    Скачать бесплатно Большие и маленькие
    Большие и маленькие скачать торрент
    Большие и маленькие смотреть онлайн
    Cкачать фильм Большие и маленькие бесплатно
    Большие и маленькие скачать торрент в хорошем качестве
    Большие и маленькие смотреть онлайн бесплатно в хорошем качестве


    Вы не можете начинать темы
    Вы не можете отвечать на сообщения
    Вы не можете редактировать свои сообщения
    Вы не можете удалять свои сообщения
    Вы не можете голосовать в опросах
    Вы не можете прикреплять файлы к сообщениям
    Вы можете скачивать файлы