Ссылка на приватное зеркало нашего сайта всего за 1$. Внимание количество ограничено!!!

2 сезон

iTunes

1 сезон

1

2 сезон

2 сезон

iTunes

1 сезон

RePack

30

Ultimate

ВАЖНО

ИГРА 18+

pack

RePack

MK11
pack

Забери бонус

RePack

jed

!!Акция!!

Alien_Rage

RePack

fifa19

RePack

Assassins Creed: Odyssey

RePack

NEED FOR SPEED™ PAYBACK

4 сезон

9 сезон

Бесстыжие 9 сезон

Все сериалы

все сериалы на PB.wtf

RePack

FAR CRY 5
  

Курск / Kursk (Томас Винтерберг) [2018, боевик, триллер, драма, история, BD Remux 1080p] MVO [HDRezka Studio] pb.wtf

Курск через торрент pb.wtf

Размер: 26.03 GB | Добавлен: 1 год 8 мес. назад | Торрент скачан:50 раз
Скачать  

23-03-2019 07:50 Курск Скачать торрент  

Курск / Kursk
Год выпуска: 2018
Страна: Бельгия, Люксембург
Жанр: боевик, триллер, драма, история
Продолжительность: 01:57:38
Перевод: Профессиональный (многоголосый) | HDRezka Studio
Субтитры: Русские (Forced), английские (Full)

Режиссер: Томас Винтерберг

rating

В ролях:

Леа Сейду, Колин Фёрт, Маттиас Шонартс, Микаэл Нюквист, Макс фон Сюдов, Аугуст Диль, Стивен Вэддингтон, Маттиас Швайгхёфер, Пернилла Аугуст, Златко Бурич

Описание:

Фильм о событиях 2000 года, связанных с подлодкой «Курск». Вся правда о мужестве и стойкости российских подводников, о разногласиях и взаимопомощи, конфликтах и единении, о преданности и любви.

Качество: BD Remux 1080p
Формат: MKV

Видео: AVC/H.264, 1920x1080 (16:9), ~27.0 Mbps, 24 fps
Аудио#1: AC-3, 2.0, 48 KHz, 192 Kbps | Русский (MVO)
Аудио#2: DTS-HD MA, 7.1, 48 kHz, 4488 kbps, 24-bit | Английский
скриншот  скриншот  скриншот  скриншот  

Общее
Уникальный идентификатор : 137310790998602298963180447848880668667 (0x674D18AE23EC9BB85929054B2A6FFFFB)
Полное имя : D:ФильмыKursk.2018.BDRemux.1080p.NNMClub.mkv
Формат : Matroska
Версия формата : Version 4
Размер файла : 26,0 Гбайт
Продолжительность : 1 ч. 57 м.
Режим общего битрейта : Переменный
Общий поток : 31,7 Мбит/сек
Название фильма : Kursk.2018.BDRemux.1080p.NNMClub
Дата кодирования : UTC 2019-03-16 01:02:32
Программа кодирования : mkvmerge v32.0.0 ('Astral Progressions') 64-bit
Библиотека кодирования : libebml v1.3.7 + libmatroska v1.5.0
Attachments : Kursk.jpg

Видео
Идентификатор : 1
Формат : AVC
Формат/Информация : Advanced Video Codec
Профиль формата : High@L4.1
Настройки формата : CABAC / 4 Ref Frames
Параметр CABAC формата : Да
Параметр RefFrames формата : 4 кадра
Параметр GOP формата : M=4, N=24
Идентификатор кодека : V_MPEG4/ISO/AVC
Продолжительность : 1 ч. 57 м.
Вид битрейта : Переменный
Битрейт : 27,0 Мбит/сек
Максимальный битрейт : 31,0 Мбит/сек
Ширина : 1920 пикселей
Высота : 1080 пикселей
Соотношение сторон : 16:9
Режим частоты кадров : Постоянный
Частота кадров : 24,000 кадра/сек
Цветовое пространство : YUV
Субдискретизация насыщенности : 4:2:0
Битовая глубина : 8 бит
Тип развёртки : Прогрессивная
Бит/(Пиксели*Кадры) : 0.543
Размер потока : 22,2 Гбайт (85%)
Язык : English
Default : Да
Forced : Нет
Цветовой диапазон : Limited
Основные цвета : BT.709
Характеристики трансфера : BT.709
Коэффициенты матрицы : BT.709

Аудио #1
Идентификатор : 2
Формат : AC-3
Формат/Информация : Audio Coding 3
Коммерческое название : Dolby Digital
Идентификатор кодека : A_AC3
Продолжительность : 1 ч. 57 м.
Вид битрейта : Постоянный
Битрейт : 192 Кбит/сек
Каналы : 2 канала
Channel layout : L R
Частота : 48,0 КГц
Частота кадров : 31,250 кадров/сек (1536 SPF)
Битовая глубина : 16 бит
Метод сжатия : С потерями
Размер потока : 161 Мбайт (1%)
Заголовок : MVO
Язык : Russian
ServiceKind : Complete Main
Default : Да
Forced : Нет

Аудио #2
Идентификатор : 3
Формат : DTS XLL
Формат/Информация : Digital Theater Systems
Коммерческое название : DTS-HD Master Audio
Идентификатор кодека : A_DTS
Продолжительность : 1 ч. 57 м.
Вид битрейта : Переменный
Битрейт : 4488 Кбит/сек
Каналы : 8 каналов
Channel layout : C L R LFE Lb Rb Lss Rss
Частота : 48,0 КГц
Частота кадров : 93,750 кадра/сек (512 SPF)
Битовая глубина : 24 бит
Метод сжатия : Без потерь
Размер потока : 3,69 Гбайт (14%)
Заголовок : Original
Язык : English
Default : Нет
Forced : Нет

Текст #1
Идентификатор : 4
Формат : UTF-8
Идентификатор кодека : S_TEXT/UTF8
Идентификатор кодека/Информация : UTF-8 Plain Text
Продолжительность : 9 с. 0 мс.
Битрейт : 90 бит/сек
ElementCount : 1
Размер потока : 102 байт (0%)
Заголовок : Forced
Язык : Russian
Default : Да
Forced : Нет

Текст #2
Идентификатор : 5
Формат : UTF-8
Идентификатор кодека : S_TEXT/UTF8
Идентификатор кодека/Информация : UTF-8 Plain Text
Продолжительность : 1 ч. 48 м.
Битрейт : 41 бит/сек
ElementCount : 1154
Размер потока : 32,7 Кбайт (0%)
Заголовок : Full
Язык : English
Default : Нет
Forced : Нет

Меню
00:00:00.000 : en:Chapter 01
00:10:35.000 : en:Chapter 02
00:20:02.000 : en:Chapter 03
00:31:43.000 : en:Chapter 04
00:38:38.000 : en:Chapter 05
00:48:32.000 : en:Chapter 06
00:59:55.000 : en:Chapter 07
01:08:57.000 : en:Chapter 08
01:18:16.000 : en:Chapter 09
01:28:53.000 : en:Chapter 10
01:38:18.000 : en:Chapter 11
01:47:32.000 : en:Chapter 12

pb.wtf



Скачать Курск через торрент https://i109.fastpic.ru/big/2019/0316/20/203dfaf67f97652e0e1f33bf8a6d7220.jpg Скачать фильм Курск через торрент бесплантно в хорошем качестве Описание: Фильм о событиях 2000 года, связанных с подлодкой «Курск». Вся правда о мужестве и стойкости российских подводников, о ... 10 10 5
Торрент: Зарегистрирован [2019-03-23 07:50] · скачан: 50 раз
Статус: T временная
Размер: 26.03 GB
Как cкачать? Как скачать Курск через торрент | qTorrent

% Раздел Тема Автор DL S | L
Фильмы [HD 720p, 1080p] (Хороший звук DUB, MVO) [ 7.65 GB ] Курск / Kursk [2018 история BDRip 1080p] +MVO [HDRezka Studio] bober100 Скачать
2 | 0
Фильмы 2018 [DVDrip, WEB-DLRip, HDrip] (DUB, MVO) [ 1.51 GB ] Курск / Kursk [2018 история BDRip-AVC] sokol_ok Скачать
6 | 0
Фильмы 2018 [DVDrip, WEB-DLRip, HDrip] (DUB, MVO) [ 746 MB ] Курск / Kursk [2018 история BDRip-AVC] sokol_ok Скачать
5 | 0
Фильмы 2018 [DVDrip, WEB-DLRip, HDrip] (DUB, MVO) [ 2.18 GB ] Курск / Kursk [2018 история BDRip-AVC] sokol_ok Скачать
7 | 0
Фильмы 2018 [DVDrip, WEB-DLRip, HDrip] (DUB, MVO) [ 746 MB ] Курск / Kursk [2018 история BDRip] bober100 Скачать
1 | 0
Фильмы 2018 [DVDrip, WEB-DLRip, HDrip] (DUB, MVO) [ 1.46 GB ] Курск / Kursk [2018 история BDRip-AVC] +MVO [HDRezka Studio] bober100 Скачать
1 | 0
Фильмы 2018 [DVDrip, WEB-DLRip, HDrip] (DUB, MVO) [ 2.18 GB ] Курск / Kursk [2018 история BDRip] bober100 Скачать
1 | 0

28-11-2019 20:33  

Отключить всю рекламу на сайте

    Дорогой пользователь! Огромная просьба, поблагодарите релизера, оцените раздачу и оставьте свои комментарий, если Вы скачали Курск через торрент бесплатно! Внесите свою лепту в развитие PiratBit!
    Комментировать посты могут только пользователи прошедшие не сложную регистрацию
    Показать сообщения:    

    Курск через торрент
    Скачать бесплатно Курск
    Курск скачать торрент
    Курск смотреть онлайн
    Cкачать фильм Курск бесплатно
    Курск скачать торрент в хорошем качестве
    Курск смотреть онлайн бесплатно в хорошем качестве


    Вы не можете начинать темы
    Вы не можете отвечать на сообщения
    Вы не можете редактировать свои сообщения
    Вы не можете удалять свои сообщения
    Вы не можете голосовать в опросах
    Вы не можете прикреплять файлы к сообщениям
    Вы можете скачивать файлы