Ссылка на приватное зеркало всего за 1$. Внимание количество ограничено!!!

OK

1+1

iTunes

мы

OK

1

WEB-DLRip

Джокер

Пифагор

Ведьмак / The Witcher сериал

iTunes

ПШазам

ОК

Оно 2

iTunes

30
pack

Вам бонус

ВАЖНО

!!Акция!!

Alien_RageХит недели

RePack

Resident Evil 21

ИГРА 18+

pack

RePack

jed

RePack

fifa19

RePack

Assassins Creed: Odyssey

RePack

NEED FOR SPEED™ PAYBACK

4 сезон

9 сезон

Бесстыжие 9 сезон

Все сериалы

все сериалы на PB.wtf

RePack

FAR CRY 5
  

Капернаум / Capharnaüm (Надин Лабаки) [2018, драма, WEB-DL 1080p] MVO [iTunes] pb.wtf

Капернаум через торрент pb.wtf

Раздают: 3 [ 0 KB/s ]
Размер: 4.74 GB | Добавлен: 10 мес. назад | Торрент скачан:303 раза
Скачать  

23-03-2019 08:22 Капернаум Скачать торрент  

Капернаум / Capharnaüm Год выпуска: 2018
Страна: Ливан, Франция, США
Жанр: драма
Продолжительность: 02:06:28
Перевод: Профессиональный многоголосый | iTunes
Субтитры: Английские, французские

Режиссер: Надин Лабаки

rating

В ролях:

Зейн Аль Раффеа, Йорданос Шифероу, Болуватифе Банколе, Кавсар Аль Хаддад, Фади Юсеф, Хаита Иззам, Алаа Шушниех, Надин Лабаки, Елиас Хури, Нур Эль Хуссейни

Описание:

Двенадцатилетний Зейн не может точно сказать, сколько у него братьев и сестер, но уверен, что детей в его семье должно было быть меньше. Несмотря на юный возраст, Зейн нелегально работает, помогает старшим, ищет деньги и документы на эмиграцию в Швецию. Он смотрит на мир с нескрываемой ненавистью. Ему есть что ненавидеть. Дети на улицах Бейрута попрошайничают, девочек как можно раньше продают замуж, сам он вынужден есть что попало, спать, где придется, и самое главное - он только что получил пятилетний срок. В тюрьме Зейн подаёт в суд на родителей. За то, что они дали ему жизнь.

Качество: WEB-DL 1080p
Формат: MKV

Видео: MPEG-4 AVC, 4592 Kбит/с, 1916x804, 24.000 кадр/с
Аудио#1: Русский ( АС3, 6ch, 384 Кбит/с, 48.0 KHz) Профессиональный (многоголосый, закадровый) iTunes
Аудио#2: Арабский ( АС3, 6ch, 384 Кбит/с, 48.0 KHz)
скриншот  скриншот  скриншот  скриншот  скриншот  

Источник: Capernaum.2018.1080p.WEB-DL.DD5.1.H.264-Weibo[EtHD]
General
Unique ID : 196913963037526191137979033439267978101 (0x94243FF21E792A3591B2AEA696AFFB75)
Complete name : Capernaum.2018.WEB-DL.1080p.mkv
Format : Matroska
Format version : Version 4 / Version 2
File size : 4.74 GiB
Duration : 2 h 6 min
Overall bit rate : 5 362 kb/s
Encoded date : UTC 2019-03-22 20:24:35
Writing application : mkvmerge v7.1.0 ('Good Love') 64bit built on Jul 27 2014 13:06:55
Writing library : libebml v1.3.0 + libmatroska v1.4.1

Video
ID : 1
Format : AVC
Format/Info : Advanced Video Codec
Format profile : High@L4
Format settings, CABAC : Yes
Format settings, RefFrames : 5 frames
Codec ID : V_MPEG4/ISO/AVC
Duration : 2 h 6 min
Bit rate : 4 592 kb/s
Width : 1 916 pixels
Height : 804 pixels
Display aspect ratio : 2.40:1
Frame rate mode : Constant
Frame rate : 24.000 FPS
Color space : YUV
Chroma subsampling : 4:2:0
Bit depth : 8 bits
Scan type : Progressive
Bits/(Pixel*Frame) : 0.124
Stream size : 4.06 GiB (86%)
Language : Arabic
Default : No
Forced : No
Color range : Limited
Color primaries : BT.709
Transfer characteristics : BT.709
Matrix coefficients : BT.709

Audio #1
ID : 2
Format : AC-3
Format/Info : Audio Coding 3
Format settings, Endianness : Big
Codec ID : A_AC3
Duration : 2 h 6 min
Bit rate mode : Constant
Bit rate : 384 kb/s
Channel(s) : 6 channels
Channel positions : Front: L C R, Side: L R, LFE
Sampling rate : 48.0 kHz
Frame rate : 31.250 FPS (1536 SPF)
Bit depth : 16 bits
Compression mode : Lossy
Stream size : 347 MiB (7%)
Title : MVO | iTunes
Language : Russian
Service kind : Complete Main
Default : Yes
Forced : No

Audio #2
ID : 3
Format : AC-3
Format/Info : Audio Coding 3
Format settings, Endianness : Big
Codec ID : A_AC3
Duration : 2 h 6 min
Bit rate mode : Constant
Bit rate : 384 kb/s
Channel(s) : 6 channels
Channel positions : Front: L C R, Side: L R, LFE
Sampling rate : 48.0 kHz
Frame rate : 31.250 FPS (1536 SPF)
Bit depth : 16 bits
Compression mode : Lossy
Stream size : 347 MiB (7%)
Language : Arabic
Service kind : Complete Main
Default : No
Forced : No

Text #1
ID : 4
Format : UTF-8
Codec ID : S_TEXT/UTF8
Codec ID/Info : UTF-8 Plain Text
Duration : 2 h 5 min
Bit rate : 34 b/s
Count of elements : 1163
Stream size : 31.3 KiB (0%)
Language : English
Default : No
Forced : No

Text #2
ID : 5
Format : UTF-8
Codec ID : S_TEXT/UTF8
Codec ID/Info : UTF-8 Plain Text
Duration : 2 h 5 min
Bit rate : 40 b/s
Count of elements : 1165
Stream size : 37.3 KiB (0%)
Language : French
Default : No
Forced : No

Text #3
ID : 6
Format : UTF-8
Codec ID : S_TEXT/UTF8
Codec ID/Info : UTF-8 Plain Text
Duration : 2 h 6 min
Bit rate : 42 b/s
Count of elements : 1353
Stream size : 39.5 KiB (0%)
Language : French
Default : No
Forced : No

Menu
00:00:00.000 : en:Chapitre 1
00:09:47.416 : en:Chapitre 2
00:20:06.125 : en:Chapitre 3
00:29:05.083 : en:Chapitre 4
00:40:00.166 : en:Chapitre 5
00:49:34.250 : en:Chapitre 6
00:59:54.375 : en:Chapitre 7
01:11:10.250 : en:Chapitre 8
01:20:53.000 : en:Chapitre 9
01:30:48.625 : en:Chapitre 10
01:39:12.291 : en:Chapitre 11
01:50:52.000 : en:Chapitre 12
02:00:36.916 : en:Chapitre 13

pb.wtf



Скачать Капернаум через торрент https://b.radikal.ru/b05/1903/af/9bab99686e19.png Скачать фильм Капернаум через торрент бесплантно в хорошем качестве Описание: Двенадцатилетний Зейн не может точно сказать, сколько у него братьев и сестер, но уверен, что детей в его семье должно было быть ... 10 10 7
Торрент: Зарегистрирован [2019-03-23 08:22] · скачан: 303 раз
Статус: √ проверено
Размер: 4.74 GB
Как cкачать? Как скачать Капернаум через торрент | qTorrent

% Раздел Тема Автор DL S | L
Фильмы 2018 [DVDrip, WEB-DLRip, HDrip] (DUB, MVO) [ 2.13 GB ] Капернаум / Capharnaüm [2018 BDRip] MVO bober100 Скачать
7 | 0
Фильмы 2018 [DVDrip, WEB-DLRip, HDrip] (DUB, MVO) [ 1.46 GB ] Капернаум / Capharnaüm [2018 BDRip] MVO bober100 Скачать
2 | 0
Фильмы [HD 720p, 1080p] (Хороший звук DUB, MVO) [ 13.4 GB ] Капернаум / Capharnaüm [2018 BDRip 1080p] MVO bober100 Скачать
6 | 0
Фильмы 2018 [DVDrip, WEB-DLRip, HDrip] (DUB, MVO) [ 2.18 GB ] Капернаум / Capharnaüm [2018 WEB-DLRip-AVC] MVO bober100 Скачать
3 | 0

28-11-2019 20:33  

Отключить всю рекламу на сайте

    Дорогой пользователь! Огромная просьба, поблагодарите релизера, оцените раздачу и оставьте свои комментарий, если Вы скачали Капернаум через торрент бесплатно! Внесите свою лепту в развитие PiratBit!
    Комментировать посты могут только пользователи прошедшие не сложную регистрацию
    Показать сообщения:    

    Капернаум через торрент
    Скачать бесплатно Капернаум
    Капернаум скачать торрент
    Капернаум смотреть онлайн
    Cкачать фильм Капернаум бесплатно
    Капернаум скачать торрент в хорошем качестве
    Капернаум смотреть онлайн бесплатно в хорошем качестве


    Вы не можете начинать темы
    Вы не можете отвечать на сообщения
    Вы не можете редактировать свои сообщения
    Вы не можете удалять свои сообщения
    Вы не можете голосовать в опросах
    Вы не можете прикреплять файлы к сообщениям
    Вы можете скачивать файлы