Ссылка на приватное зеркало нашего сайта всего за 1$. Внимание количество ограничено!!!

2 сезон

iTunes

1 сезон

1

2 сезон

2 сезон

iTunes

1 сезон

RePack

30

Ultimate

ВАЖНО

ИГРА 18+

pack

RePack

MK11
pack

Забери бонус

RePack

jed

!!Акция!!

Alien_Rage

RePack

fifa19

RePack

Assassins Creed: Odyssey

RePack

NEED FOR SPEED™ PAYBACK

4 сезон

9 сезон

Бесстыжие 9 сезон

Все сериалы

все сериалы на PB.wtf

RePack

FAR CRY 5
  

Смертельное Оружие / Lethal Weapon / Сезон: 3 / Серии: 1-15 из 15 (Стив Бойум, МакДжи) [2018-2019, боевик, триллер, драма, криминал, WEB-DLRip] [MVO] (FOX) pb.wtf

Смертельное Оружие через торрент pb.wtf

Размер: 8.09 GB | Добавлен: 1 год 8 мес. назад | Торрент скачан:25 раз
Скачать  

23-03-2019 12:53 Смертельное Оружие Скачать торрент  

Смертельное Оружие / Lethal Weapon
Год выпуска: 2018-2019
Страна: США
Жанр: боевик, триллер, драма, криминал
Продолжительность: ~00:45:00
Перевод: Профессиональный (многоголосый закадровый) FOX
Субтитры: Нет

Режиссёр: Стив Бойум, МакДжи

В ролях: Клейн Кроуфорд, Дэймон Уайанс, Джордана Брюстер, Данте Браун, Джонатан Фернандес, Чандлер Кинни, Кевин Рам, Киша Шарп, Флориана Лима и другие.

Описание: Сюжет сосредоточится на копе из Техаса, который, потеряв жену и ребёнка, перебирается на службу в Лос-Анджелес. Там ему суждено стать напарником уже немолодого детектива, которому из-за недавнего инфаркта врачи прописали избегать стрессов. Но с новым коллегой, буквально лезущим под пули, сделать это будет попросту невозможно.



Качество: WEB-DLRip
Формат: AVI
Видео кодек: XvID
Аудио кодек: MP3
Видео: XviD, ~1400 Кбит/с, 720x400, 23.976 fps
Аудио 1: AC-3, 48.0 KHz, 2 ch, 192 Kbps, CBR - русский
Аудио 2: AC-3, 48.0 KHz, 2 ch, 192 Kbps, CBR - английский
Общее
Полное имя : M:\3x01 - In the Same Boat (В одной лодке).avi
Формат : AVI
Формат/Информация : Audio Video Interleave
Размер файла : 552 Мбайт
Продолжительность : 43 м. 54 с.
Общий поток : 1758 Кбит/сек
Название фильма : Смертельное Оружие. Сезон 3 / Lethal Weapon. Season 3 (2018-2019)
Программа кодирования : VirtualDubMod 1.5.10.2 (build 2540/release)
Библиотека кодирования : VirtualDubMod build 2540/release
Авторское право : miha2154

Видео
Идентификатор : 0
Формат : MPEG-4 Visual
Профиль формата : Advanced Simple@L5
Настройки формата : BVOP1 / Custom Matrix
Параметр BVOP формата : 1
Параметр QPel формата : Нет
Параметр GMC формата : Без точки перехода
Параметр матрицы формата : Выборочная
Идентификатор кодека : DX50
Идентификатор кодека/Подсказка : DivX 5
Продолжительность : 43 м. 54 с.
Битрейт : 1360 Кбит/сек
Ширина : 720 пикселей
Высота : 400 пикселей
Соотношение сторон : 16:9
Частота кадров : 23,976 (24000/1001) кадра/сек
Цветовое пространство : YUV
Субдискретизация насыщенности : 4:2:0
Битовая глубина : 8 бит
Тип развёртки : Прогрессивная
Метод сжатия : С потерями
Бит/(Пиксели*Кадры) : 0.197
Размер потока : 427 Мбайт (77%)
Библиотека кодирования : XviD 65

Аудио #1
Идентификатор : 1
Формат : AC-3
Формат/Информация : Audio Coding 3
Коммерческое название : Dolby Digital
Идентификатор кодека : 2000
Продолжительность : 43 м. 54 с.
Вид битрейта : Постоянный
Битрейт : 192 Кбит/сек
Каналы : 2 канала
Channel layout : L R
Частота : 48,0 КГц
Частота кадров : 31,250 кадров/сек (1536 SPF)
Битовая глубина : 16 бит
Метод сжатия : С потерями
Размер потока : 60,3 Мбайт (11%)
Выравнивание : Разделение по промежуткам
Продолжительность промежутка : 42 мс. (1,00 видеокадр)
Время предзагрузки промежутка : 500 мс.
Заголовок : Профессиональный (многоголосый закадровый) FOX
ServiceKind/String : Complete Main

Аудио #2
Идентификатор : 2
Формат : AC-3
Формат/Информация : Audio Coding 3
Коммерческое название : Dolby Digital
Идентификатор кодека : 2000
Продолжительность : 43 м. 54 с.
Вид битрейта : Постоянный
Битрейт : 192 Кбит/сек
Каналы : 2 канала
Channel layout : L R
Частота : 48,0 КГц
Частота кадров : 31,250 кадров/сек (1536 SPF)
Битовая глубина : 16 бит
Метод сжатия : С потерями
Размер потока : 60,3 Мбайт (11%)
Выравнивание : Разделение по промежуткам
Продолжительность промежутка : 42 мс. (1,00 видеокадр)
Время предзагрузки промежутка : 500 мс.
Заголовок : Английский
ServiceKind/String : Complete Main
скриншот  скриншот  скриншот  
pb.wtf



Скачать Смертельное Оружие через торрент http://i89.fastpic.ru/big/2017/0928/ef/68e72b6fcd8a4759931ea382f64199ef.jpg Скачать фильм Смертельное Оружие через торрент бесплантно в хорошем качестве Описание: Сюжет сосредоточится на копе из Техаса, который, потеряв жену и ребёнка, перебирается на службу в Лос-Анджелес. Там ему суждено ... 5 10 1
Торрент: Зарегистрирован [2019-03-23 12:53] · скачан: 25 раз
Статус: √ проверено
Размер: 8.09 GB
Как cкачать? Как скачать Смертельное Оружие через торрент | qTorrent

% Раздел Тема Автор DL S | L
Зарубежные сериалы [ 38.08 GB ] Смертельное оружие / Lethal Weapon / Сезон: 3 / Серии: 1-15 из 15 [2018 WEB-DL 1080p] MVO [LostFilm] bober100 Скачать
1 | 0
Зарубежные сериалы [ 35.32 GB ] Смертельное оружие / Lethal Weapon / Сезон: 3 / Серии: 1-15 из 15 [2018 WEBRip 1080p] MVO [BaibaKo] bober100 Скачать
1 | 0
Зарубежные сериалы [ 8.24 GB ] Смертельное оружие / Lethal Weapon / Сезон: 3 / Серии: 1-15 из 15 [2018 WEB-DLRip] MVO [Newstudio] bober100 Скачать
1 | 0
Зарубежные сериалы [ 8.52 GB ] Смертельное оружие / Lethal Weapon / Сезон: 3 / Серии: 1-15 из 15 [2018 WEB-DLRip] MVO [LostFilm] bober100 Скачать
1 | 0
Зарубежные сериалы [ 36.92 GB ] Смертельное Оружие / Lethal Weapon / Сезон: 3 / Серии: 1-15 из 15 [2018 WEB-DL 1080p] [MVO] killermax2013 Скачать
1 | 0
Зарубежные сериалы [ 35.74 GB ] Смертельное оружие / Lethal Weapon / Сезон: 3 / Серии: 1-15 из 15 [2018 WEB-DL 1080p] MVO [Jaskier] bober100 Скачать
1 | 0
Зарубежные сериалы [ 15.52 GB ] Смертельное оружие / Lethal Weapon / Сезон: 3 / Серии: 1-15 из 15 [2018 WEB-DL 720p] MVO [Jaskier] bober100 Скачать
1 | 0

28-11-2019 20:33  

Отключить всю рекламу на сайте

    Дорогой пользователь! Огромная просьба, поблагодарите релизера, оцените раздачу и оставьте свои комментарий, если Вы скачали Смертельное Оружие через торрент бесплатно! Внесите свою лепту в развитие PiratBit!
    Комментировать посты могут только пользователи прошедшие не сложную регистрацию
    Показать сообщения:    

    Смертельное Оружие через торрент
    Скачать бесплатно Смертельное Оружие
    Смертельное Оружие скачать торрент
    Смертельное Оружие смотреть онлайн
    Cкачать фильм Смертельное Оружие бесплатно
    Смертельное Оружие скачать торрент в хорошем качестве
    Смертельное Оружие смотреть онлайн бесплатно в хорошем качестве


    Вы не можете начинать темы
    Вы не можете отвечать на сообщения
    Вы не можете редактировать свои сообщения
    Вы не можете удалять свои сообщения
    Вы не можете голосовать в опросах
    Вы не можете прикреплять файлы к сообщениям
    Вы можете скачивать файлы