Ссылка на приватное зеркало нашего сайта всего за 1$. Внимание количество ограничено!!!

2 сезон

iTunes

1 сезон

1

2 сезон

2 сезон

iTunes

1 сезон

RePack

30

Новинка

ВАЖНО

ИГРА 18+

pack

RePack

MK11
pack

Забери бонус

RePack

jed

!!Акция!!

Alien_Rage

RePack

fifa19

RePack

Assassins Creed: Odyssey

RePack

NEED FOR SPEED™ PAYBACK

4 сезон

9 сезон

Бесстыжие 9 сезон

Все сериалы

все сериалы на PB.wtf

RePack

FAR CRY 5
  

Пресса / Press / Сезон: 1 / Серии: 1-6 из 6 (Том Вон / Tom Vaughan) [2018, драма, WEB-DLRip] [MVO] (Amedia) pb.wtf

Пресса через торрент pb.wtf

Размер: 4.69 GB | Добавлен: 1 год 8 мес. назад | Торрент скачан:10 раз
Скачать  

23-03-2019 13:37 Пресса Скачать торрент  

Пресса / Press Год выпуска: 2018
Страна: Великобритания, США
Жанр: драма
Продолжительность: 0:58:00
Перевод: Профессиональный (многоголосый закадровый) Amedia

Режиссёр: Том Вон / Tom Vaughan

В ролях: Шарлотта Райли, Приянга Бёрфорд, Аль Уивер, Бен Чаплин, Паапа Эссьеду, Шэйн Заза, Элли Кендрик

Описание: Истории жизни журналистов нескольких изданий, которые сталкиваются с различными этическими вопросами...


Сэмпл: http://multi-up.com/1226056

Качество: WEB-DLRip
Формат: AVI
Видео: MPEG4, DivX 5, 704x352 (2.000), 25.000 fps, 1 534 Kbps (0.248 bit/pixel)
Аудио: AC-3, 48.0 KHz, 2 ch, 192 Kbps, CBR - русский
Аудио 2: AC-3, 48.0 KHz, 2 ch, 192 Kbps, CBR - английский
Субтитры: нет

Реклама:
нет
Общее
Полное имя : F:\1x01 - Death Knock (Посмертный визит).avi
Формат : AVI
Формат/Информация : Audio Video Interleave
Размер файла : 801 Мбайт
Продолжительность : 57 м. 55 с.
Общий поток : 1932 Кбит/сек
Название фильма : Пресса. Сезон 1 / Press. Season 1 (2018)
Программа кодирования : VirtualDubMod 1.5.10.2 (build 2540/release)
Библиотека кодирования : VirtualDubMod build 2540/release
Авторское право : miha2154

Видео
Идентификатор : 0
Формат : MPEG-4 Visual
Профиль формата : Advanced Simple@L5
Настройки формата : BVOP1 / Custom Matrix
Параметр BVOP формата : 1
Параметр QPel формата : Нет
Параметр GMC формата : Без точки перехода
Параметр матрицы формата : Выборочная
Идентификатор кодека : DX50
Идентификатор кодека/Подсказка : DivX 5
Продолжительность : 57 м. 55 с.
Битрейт : 1534 Кбит/сек
Ширина : 704 пикселя
Высота : 352 пикселя
Соотношение сторон : 2,000
Частота кадров : 25,000 кадров/сек
Цветовое пространство : YUV
Субдискретизация насыщенности : 4:2:0
Битовая глубина : 8 бит
Тип развёртки : Прогрессивная
Метод сжатия : С потерями
Бит/(Пиксели*Кадры) : 0.248
Размер потока : 636 Мбайт (79%)
Библиотека кодирования : XviD 65

Аудио #1
Идентификатор : 1
Формат : AC-3
Формат/Информация : Audio Coding 3
Коммерческое название : Dolby Digital
Идентификатор кодека : 2000
Продолжительность : 57 м. 55 с.
Вид битрейта : Постоянный
Битрейт : 192 Кбит/сек
Каналы : 2 канала
Channel layout : L R
Частота : 48,0 КГц
Частота кадров : 31,250 кадров/сек (1536 SPF)
Битовая глубина : 16 бит
Метод сжатия : С потерями
Размер потока : 79,5 Мбайт (10%)
Выравнивание : Разделение по промежуткам
Продолжительность промежутка : 40 мс. (1,00 видеокадр)
Время предзагрузки промежутка : 500 мс.
Заголовок : Профессиональный (многоголосый, закадровый) Amedia
ServiceKind/String : Complete Main

Аудио #2
Идентификатор : 2
Формат : AC-3
Формат/Информация : Audio Coding 3
Коммерческое название : Dolby Digital
Идентификатор кодека : 2000
Продолжительность : 57 м. 55 с.
Вид битрейта : Постоянный
Битрейт : 192 Кбит/сек
Каналы : 2 канала
Channel layout : L R
Частота : 48,0 КГц
Частота кадров : 31,250 кадров/сек (1536 SPF)
Битовая глубина : 16 бит
Метод сжатия : С потерями
Размер потока : 79,5 Мбайт (10%)
Выравнивание : Разделение по промежуткам
Продолжительность промежутка : 40 мс. (1,00 видеокадр)
Время предзагрузки промежутка : 500 мс.
Заголовок : Английский
ServiceKind/String : Complete Main
скриншот  скриншот  скриншот  
pb.wtf



Скачать Пресса через торрент https://i110.fastpic.ru/big/2019/0311/ab/1eb6b9d76ce468f3a7119d389e9478ab.jpg Скачать фильм Пресса через торрент бесплантно в хорошем качестве Описание: Истории жизни журналистов нескольких изданий, которые сталкиваются с различными этическими вопросами...Сэмпл: ... 9 10 1
Торрент: Зарегистрирован [2019-03-23 13:37] · скачан: 10 раз
Статус: √ проверено
Размер: 4.69 GB
Как cкачать? Как скачать Пресса через торрент | qTorrent

% Раздел Тема Автор DL S | L
Зарубежные сериалы [ 15.93 GB ] Пресса / Press / Сезон: 1 / Серии: 1-6 из 6 [2018 WEB-DL 1080p] MVO [TVShows] bober100 Скачать
1 | 0

28-11-2019 20:33  

Отключить всю рекламу на сайте

    Дорогой пользователь! Огромная просьба, поблагодарите релизера, оцените раздачу и оставьте свои комментарий, если Вы скачали Пресса через торрент бесплатно! Внесите свою лепту в развитие PiratBit!
    Комментировать посты могут только пользователи прошедшие не сложную регистрацию
    Показать сообщения:    

    Пресса через торрент
    Скачать бесплатно Пресса
    Пресса скачать торрент
    Пресса смотреть онлайн
    Cкачать фильм Пресса бесплатно
    Пресса скачать торрент в хорошем качестве
    Пресса смотреть онлайн бесплатно в хорошем качестве


    Вы не можете начинать темы
    Вы не можете отвечать на сообщения
    Вы не можете редактировать свои сообщения
    Вы не можете удалять свои сообщения
    Вы не можете голосовать в опросах
    Вы не можете прикреплять файлы к сообщениям
    Вы можете скачивать файлы