новый адрес
Ссылка на приватное зеркало всего за 1$. Внимание количество ограничено!!!

iTunes

1+1

iTunes

мы

WEB-DL

1

iTunes

Чернобыль

iTunes

Ральф против интернета

Лицензия

ПШазам

Лицензия

Оно 2

Лицензия

30
pack

Вам бонус

ВАЖНО

!!Акция!!

Alien_RageХит недели

RePack

Resident Evil 21

ИГРА 18+

pack

RePack

jed

!!Акция!!

Alien_Rage

RePack

fifa19

RePack

Assassins Creed: Odyssey

RePack

NEED FOR SPEED™ PAYBACK

3 сезон

9 сезон

Бесстыжие 9 сезон

Все сериалы

все сериалы на PB.wtf

RePack

FAR CRY 5
Ребята, катастрофически не хватает 1900р. для оплаты серверов за Октябрь (всвязи с блокировками трафик упал в 3 раза), 1-2р., выручайте.
  

Айка (Сергей Дворцевой) [2019, драма, WEB-DLRip от OlLanDGroup] [iTunes] pb.wtf

Айка через торрент pb.wtf

Размер: 745 MB | Добавлен: 8 мес. назад | Торрент скачан:237 раз
Скачать  

23-03-2019 17:59 Айка Скачать торрент  

Айка

Год выпуска: 2018
Страна: Россия, Германия, Польша, Китай, Казахстан
Жанр: Драма

Продолжительность: 01:53:36

Перевод: Не требуется | iTunes
Субтитры: Отсутствуют

Режиссер: Сергей Дворцевой


rating

Описание: Молодая девушка, приехавшая в холодную Москву на заработки, вынуждена оставить своего новорожденного ребенка в роддоме. Однако вскоре ей предстоит понять, способна ли она смириться с разлукой.

Качество: WEB-DLRip
Формат: AVI
Видео кодек: XviD
Аудио кодек: MP3
Видео: 688x384 (1.79:1), 24 fps, XviD build 73 ~779 kbps avg, 0.12 bit/pixel
Аудио: 48 kHz, MPEG Layer 3, 2 ch, ~128.00 kbps avg

Релиз:

General
Complete name : D:/Мои рипы/Айка.2018.WEB-DLRip.OlLanDGroup.avi
Format : AVI
Format/Info : Audio Video Interleave
File size : 745 MiB
Duration : 1 h 53 min
Overall bit rate : 917 kb/s
Writing application : VirtualDubMod 1.5.10.3 | www.virtualdub-fr.org || (build 2550/release)
Writing library : VirtualDubMod build 2550/release

Video
ID : 0
Format : MPEG-4 Visual
Format profile : Advanced Simple@L5
Format settings : BVOP1 / Custom Matrix
Format settings, BVOP : 1
Format settings, QPel : No
Format settings, GMC : No warppoints
Format settings, Matrix : Custom
Codec ID : XVID
Codec ID/Hint : XviD
Duration : 1 h 53 min
Bit rate : 780 kb/s
Width : 688 pixels
Height : 384 pixels
Display aspect ratio : 16:9
Frame rate : 24.000 FPS
Color space : YUV
Chroma subsampling : 4:2:0
Bit depth : 8 bits
Scan type : Progressive
Compression mode : Lossy
Bits/(Pixel*Frame) : 0.123
Stream size : 634 MiB (85%)
Writing library : XviD 73

Audio
ID : 1
Format : MPEG Audio
Format version : Version 1
Format profile : Layer 3
Codec ID : 55
Codec ID/Hint : MP3
Duration : 1 h 53 min
Bit rate mode : Constant
Bit rate : 128 kb/s
Channel(s) : 2 channels
Sampling rate : 48.0 kHz
Frame rate : 41.667 FPS (1152 SPF)
Compression mode : Lossy
Stream size : 104 MiB (14%)
Alignment : Aligned on interleaves
Interleave, duration : 42 ms (1.00 video frame)
Interleave, preload duration : 504 ms
Writing library : LAME3.99r
Encoding settings : -m s -V 4 -q 2 -lowpass 17 -b 128

pb.wtf



Скачать Айка через торрент https://a.radikal.ru/a27/1903/e2/b05d1b0b73e2.png Скачать фильм Айка через торрент бесплантно в хорошем качестве Описание: Молодая девушка, приехавшая в холодную Москву на заработки, вынуждена оставить своего новорожденного ребенка в роддоме. Однако ... 10 10 7
Торрент: Зарегистрирован [2019-03-23 17:59] · скачан: 237 раз
Статус: √ проверено
Размер: 745 MB
Как cкачать? Как скачать Айка через торрент | qTorrent

% Раздел Тема Автор DL S | L
Фильмы 2016 [DVDrip, WEB-DLRip, HDrip] (DUB, MVO) [ 2.05 GB ] Охота на дикарей / Hunt for the Wilderpeople [2016 BDRip-AVC] DUB [] от ExKinoRay Enigma2010 Скачать
2 | 0
Фильмы 2018 [DVDrip, WEB-DLRip, HDrip] (DUB, MVO) [ 2.18 GB ] Чайка / The Seagull [2018 BDRip-AVC] MVO bober100 Скачать
1 | 0
Зарубежные сериалы [ 1.77 GB ] Паранормальный Веллингтон / Паранормальщина Веллингтона / Wellington Paranormal / Сезон: 1 / Серии: 1-6 из 6 [2018 HDTVRip] [MVO] killermax2013 Скачать
1 | 0
Фильмы (Blu-ray, BD-Remux, HDDVD) [ 39.06 GB ] Тор: Рагнарёк / Thor: Ragnarok [2017 Blu-Ray EUR 1080p] - [] sheker187 Скачать
1 | 0
Фильмы с авторской озвучкой [ 2.07 GB ] Тор: Рагнарёк / Thor: Ragnarok [2017 BDRip] [AVO] killermax2013 Скачать
1 | 0
Фильмы 2017 [DVDrip, WEB-DLRip, HDrip] (DUB, MVO) [ 4.24 GB ] Тор: Рагнарёк / Thor: Ragnarok [2017 BDRip-AVC] [IMAX Edition] + [AVO] killermax2013 Скачать
1 | 0
Фильмы (Blu-ray, BD-Remux, HDDVD) [ 35.79 GB ] Тор: Рагнарёк / Thor: Ragnarok [2017 BDRemux 1080p] DUB + AVO [Живов] sheker187 Скачать
1 | 0

28-11-2019 20:33  

Отключить всю рекламу на сайте

24-03-2019 14:49 Айка Скачать торрент  

Очень даже не кислый фильм. Реалии нашего времени.pb.wtf



27-03-2019 21:49 Айка Скачать торрент  

Demon83666 писал(а):

Очень даже не кислый фильм. Реалии нашего времени.

тяжёлая у тебя жизнь с такими реалиямиpb.wtf



    Дорогой пользователь! Огромная просьба, поблагодарите релизера, оцените раздачу и оставьте свои комментарий, если Вы скачали Айка через торрент бесплатно! Внесите свою лепту в развитие PiratBit!
    Комментировать посты могут только пользователи прошедшие не сложную регистрацию
    Показать сообщения:    

    Айка через торрент
    Скачать бесплатно Айка
    Айка скачать торрент
    Айка смотреть онлайн
    Cкачать фильм Айка бесплатно
    Айка скачать торрент в хорошем качестве
    Айка смотреть онлайн бесплатно в хорошем качестве


    Вы не можете начинать темы
    Вы не можете отвечать на сообщения
    Вы не можете редактировать свои сообщения
    Вы не можете удалять свои сообщения
    Вы не можете голосовать в опросах
    Вы не можете прикреплять файлы к сообщениям
    Вы можете скачивать файлы