2 сезон

iTunes

MVO

1

2 сезон

iTunes

iTunes

1 сезон

RePack

30

Новинка

ВАЖНО

ИГРА 18+

pack

RePack

MK11
pack

Легкие деньги

RePack

jed

RePack

fifa19

RePack

RDR2

RePack

NEED FOR SPEED™ PAYBACK

4 сезон

9 сезон

Бесстыжие 9 сезон

Все сериалы

все сериалы на PB.wtf

RePack

FAR CRY 5

Anonymous, доброй ночи, мы не успеваем собрать деньги на оплату серверов за декабрь и январь, помогите нам пожалуйста в это трудное время. В качестве благодарности мы отключим Вам всю рекламу на сайте (укажите свой ник в строку Ваше имя)!

×
  
Magnet ссылка

Бамблби / Bumblebee (Трэвис Найт) [2018, фантастика, боевик, приключения, BDRip 1080p] DUB [Лицензия] + 2xMVO [СВ Студия, HDRezka Studio] pb.wtf

Бамблби через торрент pb.wtf

Размер: 16.15 GB | Добавлен: 1 год 9 мес. назад | Торрент скачан:854 раза
Скачать  

24-03-2019 04:05 Бамблби Скачать торрент  

Бамблби / Bumblebee«У каждого приключения есть начало»

Год выпуска: 2018
Страна: США, Китай
Жанр: фантастика, боевик, приключения
Продолжительность: 01:53:52
Перевод(ы):
#1: Дублированный | Лицензия
#2: Профессиональный многоголосый | СВ Студия
#3: Профессиональный многоголосый | HDRezka Studio
Субтитры: Русские (Forced, full), английские
Режиссер: Трэвис Найт
В ролях:

Дилан О’Брайен (Bumblebee, озвучка), Хейли Стайнфелд (Charlie), Хорхе Лендеборг мл. (Memo), Джон Сина (Agent Burns), Джейсон Йен Дракер (Otis), Памела Адлон (Sally), Стивен Шнайдер (Ron), Рикардо Хойос (Tripp), Джон Ортис (Dr. Powell), Глинн Тёрмен (General Whalen), Лен Кариу (Uncle Hank), Коллин Холц (Craig)
Описание:
1987 год. Скрываясь от преследования, Бамблби находит убежище на автомобильной свалке в калифорнийском городке, где живет Чарли. Девушке скоро исполнится 18, она стремится найти свое место в жизни. И именно она наталкивается на покореженного и сломленного Бамблби. Приведя его в чувство, Чарли моментально осознает: на ее пути оказался не простой желтый Фольксваген Жук...
Рейтинг:

MPAA: PG-13 - Детям до 13 лет просмотр не желателен
Качество: BDRip 1080p
Формат: MKV
Видео: MPEG-4 AVC, 1920x1080, 18.6 Mbit/s, 23.976 fps
Аудио #01: 48 kHz, AC3, 5.1, 640 Kbps | Дублированный | RUS |
Аудио #02: 48 kHz, AC3, 2.0, 192 Kbps | Профессиональный многоголосый | RUS |
Аудио #03: 48 kHz, AC3, 2.0, 192 Kbps | Профессиональный многоголосый | RUS |
Аудио #04: 48 kHz, AC3, 5.1, 640 Kbps | Оригинал | ENG |
Навигация по главам: есть
General
Unique ID : 181852296693860530163468437657796652528 (0x88CF7A762EDA7B98616F6F36C04EADF0)
Complete name : D:Video111Bumblebee.2018.BDRip.1080p.seleZen.mkv
Format : Matroska
Format version : Version 4
File size : 16.2 GiB
Duration : 1 h 53 min
Overall bit rate : 20.3 Mb/s
Movie name : Bumblebee 2018 from селезень
Encoded date : UTC 2019-03-23 22:39:22
Writing application : mkvmerge v32.0.0 ('Astral Progressions') 64-bit
Writing library : libebml v1.3.7 + libmatroska v1.5.0

Video
ID : 1
Format : AVC
Format/Info : Advanced Video Codec
Format profile : High@L4.1
Format settings : CABAC / 4 Ref Frames
Format settings, CABAC : Yes
Format settings, ReFrames : 4 frames
Codec ID : V_MPEG4/ISO/AVC
Duration : 1 h 53 min
Bit rate : 18.6 Mb/s
Width : 1 920 pixels
Height : 1 080 pixels
Display aspect ratio : 16:9
Frame rate mode : Constant
Frame rate : 23.976 (24000/1001) FPS
Color space : YUV
Chroma subsampling : 4:2:0
Bit depth : 8 bits
Scan type : Progressive
Bits/(Pixel*Frame) : 0.375
Stream size : 14.8 GiB (92%)
Title : MTeam
Writing library : x264 core 157 r2938 2b00a84 TnP@MTeam Mod
Encoding settings : cabac=1 / ref=4 / deblock=1:-3:-3 / analyse=0x3:0x133 / me=umh / subme=10 / psy=1 / psy_rd=1.05:0.00 / mixed_ref=1 / me_range=32 / chroma_me=1 / trellis=2 / 8x8dct=1 / cqm=0 / deadzone=21,11 / fast_pskip=0 / chroma_qp_offset=-2 / threads=12 / lookahead_threads=2 / sliced_threads=0 / nr=0 / decimate=0 / interlaced=0 / bluray_compat=0 / constrained_intra=0 / bframes=8 / b_pyramid=2 / b_adapt=2 / b_bias=0 / direct=3 / weightb=1 / open_gop=0 / weightp=2 / keyint=250 / keyint_min=24 / scenecut=40 / intra_refresh=0 / rc_lookahead=250 / rc=crf / mbtree=0 / crf=18.5 / qcomp=0.60 / qpmin=0 / qpmax=69 / qpstep=4 / vbv_maxrate=62500 / vbv_bufsize=78125 / crf_max=0.0 / nal_hrd=none / filler=0 / ip_ratio=1.30 / pb_ratio=1.20 / aq=3:0.80
Language : English
Default : Yes
Forced : No
Color range : Limited
Color primaries : BT.709
Matrix coefficients : BT.709

Audio #1
ID : 2
Format : AC-3
Format/Info : Audio Coding 3
Commercial name : Dolby Digital
Codec ID : A_AC3
Duration : 1 h 53 min
Bit rate mode : Constant
Bit rate : 640 kb/s
Channel(s) : 6 channels
Channel layout : L R C LFE Ls Rs
Sampling rate : 48.0 kHz
Frame rate : 31.250 FPS (1536 SPF)
Bit depth : 16 bits
Compression mode : Lossy
Stream size : 521 MiB (3%)
Title : Dub [License]
Language : Russian
Service kind : Complete Main
Default : Yes
Forced : Yes

Audio #2
ID : 3
Format : AC-3
Format/Info : Audio Coding 3
Commercial name : Dolby Digital
Codec ID : A_AC3
Duration : 1 h 53 min
Bit rate mode : Constant
Bit rate : 192 kb/s
Channel(s) : 2 channels
Channel layout : L R
Sampling rate : 48.0 kHz
Frame rate : 31.250 FPS (1536 SPF)
Bit depth : 16 bits
Compression mode : Lossy
Stream size : 156 MiB (1%)
Title : MVO [СВ Студия]
Language : Russian
Service kind : Complete Main
Default : No
Forced : No

Audio #3
ID : 4
Format : AC-3
Format/Info : Audio Coding 3
Commercial name : Dolby Digital
Codec ID : A_AC3
Duration : 1 h 53 min
Bit rate mode : Constant
Bit rate : 192 kb/s
Channel(s) : 2 channels
Channel layout : L R
Sampling rate : 48.0 kHz
Frame rate : 31.250 FPS (1536 SPF)
Bit depth : 16 bits
Compression mode : Lossy
Stream size : 156 MiB (1%)
Title : MVO [HDRezka Studio]
Language : Russian
Service kind : Complete Main
Default : No
Forced : No

Audio #4
ID : 5
Format : AC-3
Format/Info : Audio Coding 3
Commercial name : Dolby Digital
Codec ID : A_AC3
Duration : 1 h 53 min
Bit rate mode : Constant
Bit rate : 640 kb/s
Channel(s) : 6 channels
Channel layout : L R C LFE Ls Rs
Sampling rate : 48.0 kHz
Frame rate : 31.250 FPS (1536 SPF)
Bit depth : 16 bits
Compression mode : Lossy
Stream size : 521 MiB (3%)
Title : Original
Language : English
Service kind : Complete Main
Default : No
Forced : No

Text #1
ID : 6
Format : UTF-8
Codec ID : S_TEXT/UTF8
Codec ID/Info : UTF-8 Plain Text
Duration : 1 h 45 min
Bit rate : 1 b/s
Count of elements : 29
Stream size : 1.14 KiB (0%)
Title : Forced
Language : Russian
Default : Yes
Forced : Yes

Text #2
ID : 7
Format : UTF-8
Codec ID : S_TEXT/UTF8
Codec ID/Info : UTF-8 Plain Text
Duration : 1 h 53 min
Bit rate : 61 b/s
Count of elements : 1164
Stream size : 51.0 KiB (0%)
Title : Full
Language : Russian
Default : No
Forced : No

Text #3
ID : 8
Format : UTF-8
Codec ID : S_TEXT/UTF8
Codec ID/Info : UTF-8 Plain Text
Duration : 1 h 48 min
Bit rate : 45 b/s
Count of elements : 1270
Stream size : 36.3 KiB (0%)
Language : English
Default : No
Forced : No

Menu
00:00:00.000 : en:00:00:00.000
00:03:30.710 : en:00:03:30.710
00:12:16.486 : en:00:12:16.486
00:16:56.724 : en:00:16:56.724
00:21:03.053 : en:00:21:03.053
00:26:42.601 : en:00:26:42.601
00:32:33.326 : en:00:32:33.326
00:39:44.090 : en:00:39:44.090
00:45:18.591 : en:00:45:18.591
00:50:43.624 : en:00:50:43.624
00:54:16.253 : en:00:54:16.253
01:01:10.709 : en:01:01:10.709
01:06:26.900 : en:01:06:26.900
01:11:39.545 : en:01:11:39.545
01:16:08.105 : en:01:16:08.105
01:21:37.142 : en:01:21:37.142
01:25:08.603 : en:01:25:08.603
01:30:15.410 : en:01:30:15.410
01:36:46.801 : en:01:36:46.801
01:43:52.560 : en:01:43:52.560
01:49:43.202 : en:01:49:43.202
pb.wtf



Скачать Бамблби через торрент https://c.radikal.ru/c15/1903/3a/b08e0181b6c5.jpg Скачать фильм Бамблби через торрент бесплантно в хорошем качестве Описание: 1987 год. Скрываясь от преследования, Бамблби находит убежище на автомобильной свалке в калифорнийском городке, где живет Чарли. ... 10 10 16
Info! Золотая раздача, скачанное не засчитывается.
Торрент: Зарегистрирован [2019-03-24 04:05] · скачан: 854 раз
Статус: √ проверено
Размер: 16.15 GB
Как cкачать? Как скачать Бамблби через торрент | UTorrent

% Раздел Тема Автор DL S | L
Фильмы (HD 720p, 1080p) (48-60 fps) [ 4.52 GB ] Бамблби / Bumblebee [2018 BDRip 720p / 60 FPS ] от R.G. HD-Films slaventi-69 Скачать
3 | 0
Фильмы (Blu-ray, BD-Remux, HDDVD) [ 26.5 GB ] Бамблби / Bumblebee [2018 BDRemux 1080p] DUB [] + 2xMVO [СВ Студия HDRezka Studio] sheker187 Скачать
1 | 0
Фильмы (WEB-DL 720p, 1080p) [ 8.47 GB ] Бамблби / Bumblebee [2018 BDRip 1080p] [] + 2x[MVO] killermax2013 Скачать
4 | 0
Фильмы 2018 [DVDrip, WEB-DLRip, HDrip] (DUB, MVO) [ 1.46 GB ] Бамблби / Bumblebee [2018 BDRip] - [] Twi7ter Скачать
4 | 0
Фильмы 2018 [DVDrip, WEB-DLRip, HDrip] (DUB, MVO) [ 2.19 GB ] Бамблби / Bumblebee [2018 BDRip] - [] Twi7ter Скачать
1 | 0
Фильмы [HD 720p, 1080p] (Хороший звук DUB, MVO) [ 8.21 GB ] Бамблби / Bumblebee [2018 BDRip 720p] DUB [] + 2xMVO [СВ Студия HDRezka Studio] sheker187 Скачать
2 | 0
Ultra HD (UHD: 2K, 4K, 8K) — видео сверхвысокой чёткости [ 33.48 GB ] Бамблби / Bumblebee [2018 UHD BDRip 2160p] [SDR] DUB [] + 2xMVO [СВ Студия HDRezka Studio] sheker187 Скачать
1 | 0

28-11-2019 20:33  

Отключить всю рекламу на сайте

30-05-2020 12:51 Бамблби Скачать торрент  

очень пожалел, что посмотрел... сделали из воина Бамлби какого-то пса даунаpb.wtf



    Дорогой пользователь! Огромная просьба, поблагодарите релизера, оцените раздачу и оставьте свои комментарий, если Вы скачали Бамблби через торрент бесплатно! Внесите свою лепту в развитие PiratBit!
    Комментировать посты могут только пользователи прошедшие не сложную регистрацию
    Показать сообщения:    

    Бамблби через торрент
    Скачать бесплатно Бамблби
    Бамблби скачать торрент
    Бамблби смотреть онлайн
    Cкачать фильм Бамблби бесплатно
    Бамблби скачать торрент в хорошем качестве
    Бамблби смотреть онлайн бесплатно в хорошем качестве


    Вы не можете начинать темы
    Вы не можете отвечать на сообщения
    Вы не можете редактировать свои сообщения
    Вы не можете удалять свои сообщения
    Вы не можете голосовать в опросах
    Вы не можете прикреплять файлы к сообщениям
    Вы можете скачивать файлы