Ссылка на приватное зеркало всего за 1$. Внимание количество ограничено!!!

iTunes

1+1

iTunes

мы

WEB-DL

1

iTunes

Чернобыль

iTunes

Ральф против интернета

Лицензия

ПШазам

Лицензия

Оно 2

Лицензия

30
pack

Вам бонус

ВАЖНО

!!Акция!!

Alien_RageХит недели

RePack

Resident Evil 21

ИГРА 18+

pack

RePack

jed

!!Акция!!

Alien_Rage

RePack

fifa19

RePack

Assassins Creed: Odyssey

RePack

NEED FOR SPEED™ PAYBACK

3 сезон

9 сезон

Бесстыжие 9 сезон

Все сериалы

все сериалы на PB.wtf

RePack

FAR CRY 5
Ребята, катастрофически не хватает 1900р. для оплаты серверов за Октябрь (всвязи с блокировками трафик упал в 3 раза), 1-2р., выручайте.
  

Охотники за душами / Soul Hunters (Адриан Асеведо-Смит, Артуро Асеведо-Смит) [2019, Боевик, WEB-DLRip-AVC] MVO [HDRezka Studio] - ExKinoRay pb.wtf

Охотники за душами через торрент pb.wtf

Раздают: 4 [ 0 KB/s ]
Размер: 1.44 GB | Добавлен: 8 мес. назад | Торрент скачан:423 раза
Скачать  

24-03-2019 04:40 Охотники за душами Скачать торрент  

Название: Охотники за душами
Оригинальное название: Soul Hunters
Год выпуска: 2019
Жанр: Боевик, триллер, боевые искусства
Режиссер: Адриан Асеведо-Смит, Артуро Асеведо-Смит
В ролях: Зак Шерер, Франциска Шисслер, Дэвид Джош Лоуренс, Николай Александров, Келси Джонсон, Тайлер Коул, Арамис Мерлин, Дэвид Сауседо, Ками Д. Брудер, Мишель Александрия

Описание:
Похищение человека, которое транслируют в прямом эфире в социальных сетях, внезапно превращается в разбирательство над судьей, который вынес неверный вердикт в одном из своих прошлых уголовных дел. Однако на этот раз судья становится подсудимым, а роль судьи и присяжных исполняют зрители прямой трансляции и именно им предстоит решать, останется ли он в живых.


rating

Выпущено: США, Acevedo Smith Productions
Продолжительность: 01:41:16
Перевод: Профессиональный (многоголосый, закадровый) | HDRezka Studio
Субтитры: Английские

БЕЗ КАКОЙ-ЛИБО РЕКЛАМЫ!

Формат: MKV
Качество: WEB-DLRip-AVC
Видео: MPEG-4 AVC, 720x404 (16:9), 23.976 fps, 1851 Kbps, 0.265 bit/pixel
Аудио : 48 kHz, AC3, 2.0, 192 Kbps | MVO | RUS |
General
Unique ID : 232081404309393659790277773659187256174 (0xAE9940AB03FB1FCF86D9C915B1491B6E)
Complete name : D:\Soul.Hunters.2019.MVO.AMZN.WEB-DLRip.AVC.ExKinoRay.mkv
Format : Matroska
Format version : Version 2
File size : 1.44 GiB
Duration : 1 h 41 min
Overall bit rate : 2 042 kb/s
Movie name : Soul Hunters 2019 from ExKinoRay
Encoded date : UTC 2019-03-24 03:13:58
Writing application : mkvmerge v5.6.0 ('Kenya Kane') built on May 27 2012 16:44:04
Writing library : libebml v1.2.3 + libmatroska v1.3.0

Video
ID : 1
Format : AVC
Format/Info : Advanced Video Codec
Format profile : High@L4.1
Format settings, CABAC : Yes
Format settings, ReFrames : 11 frames
Codec ID : V_MPEG4/ISO/AVC
Duration : 1 h 41 min
Bit rate : 1 851 kb/s
Width : 720 pixels
Height : 404 pixels
Display aspect ratio : 16:9
Frame rate mode : Constant
Frame rate : 23.976 (24000/1001) FPS
Original frame rate : 23.976 (23976/1000) FPS
Color space : YUV
Chroma subsampling : 4:2:0
Bit depth : 8 bits
Scan type : Progressive
Bits/(Pixel*Frame) : 0.265
Stream size : 1.28 GiB (89%)
Title : Enigma
Writing library : x264 core 152 r2851 ba24899
Encoding settings : cabac=1 / ref=11 / deblock=1:-2:-2 / analyse=0x3:0x113 / me=umh / subme=10 / psy=1 / psy_rd=1.05:0.10 / mixed_ref=1 / me_range=32 / chroma_me=1 / trellis=2 / 8x8dct=1 / cqm=0 / deadzone=21,11 / fast_pskip=0 / chroma_qp_offset=-3 / threads=12 / lookahead_threads=3 / sliced_threads=0 / nr=0 / decimate=0 / interlaced=0 / bluray_compat=0 / constrained_intra=0 / bframes=10 / b_pyramid=2 / b_adapt=2 / b_bias=0 / direct=3 / weightb=1 / open_gop=0 / weightp=2 / keyint=240 / keyint_min=23 / scenecut=40 / intra_refresh=0 / rc_lookahead=40 / rc=2pass / mbtree=1 / bitrate=1851 / ratetol=1.0 / qcomp=0.60 / qpmin=0 / qpmax=51 / qpstep=4 / cplxblur=20.0 / qblur=0.5 / ip_ratio=1.40 / aq=1:1.00
Default : Yes
Forced : No
Color range : Limited
Color primaries : BT.709
Transfer characteristics : BT.709
Matrix coefficients : BT.709

Audio
ID : 2
Format : AC-3
Format/Info : Audio Coding 3
Mode extension : CM (complete main)
Format settings, Endianness : Big
Codec ID : A_AC3
Duration : 1 h 41 min
Bit rate mode : Constant
Bit rate : 192 kb/s
Channel(s) : 2 channels
Channel positions : Front: L R
Sampling rate : 48.0 kHz
Frame rate : 31.250 FPS (1536 spf)
Compression mode : Lossy
Stream size : 139 MiB (9%)
Title : MVO (HDRezka Studio)
Language : Russian
Default : Yes
Forced : No

Text
ID : 3
Format : UTF-8
Codec ID : S_TEXT/UTF8
Codec ID/Info : UTF-8 Plain Text
Language : English
Default : No
Forced : No
Релиз от:

Автор релиза: pb.wtf



Скачать Охотники за душами через торрент https://c.radikal.ru/c02/1903/88/4300a35b471a.jpg Скачать фильм Охотники за душами через торрент бесплантно в хорошем качестве Описание: Похищение человека, которое транслируют в прямом эфире в социальных сетях, внезапно превращается в разбирательство над судьей, ... 8.8 10 10
Info! Золотая раздача, скачанное не засчитывается.
Торрент: Зарегистрирован [2019-03-24 04:40] · скачан: 423 раз
Статус: T временная
Размер: 1.44 GB
Как cкачать? Как скачать Охотники за душами через торрент | qTorrent

28-11-2019 20:33  

Отключить всю рекламу на сайте

24-03-2019 04:50 Охотники за душами Скачать торрент  

Спасибо pb.wtf



24-03-2019 06:04 Охотники за душами Скачать торрент  

описание для другого фильмаpb.wtf



24-03-2019 06:13 Охотники за душами Скачать торрент  

Американский палач- описание вашеpb.wtf



24-03-2019 09:11 Охотники за душами Скачать торрент  

постер о многом говорит имя ссылки постерpb.wtf



24-03-2019 13:19 Охотники за душами Скачать торрент  

kloyni писал(а):

описание для другого фильма

В ролях: Дэвид Джош Лоуренс, Николай Александрович, Тайлер Коул Малингер
В недалёком прошлом он был профессиональным военным и сотрудником элитного отряда специального назначения. Однако в силу определённых причин ему пришлось покинуть ряды спецназовцев. Первое время он тратит на поиски новой работы, но все попытки его тщетны. Внезапно к нему заявляется дьявол и предлагает спецназовцу стать охотником за душами. Бывший вояка соглашается на предложение демона и тут же начинает охотиться за душами неугодных и преступников. Внезапно ему становится известно о том, что его бывший коллега стал серийным убийцей. Его очередной целью становится охотник за душами, с которым они когда-то вместе работалиpb.wtf



    Дорогой пользователь! Огромная просьба, поблагодарите релизера, оцените раздачу и оставьте свои комментарий, если Вы скачали Охотники за душами через торрент бесплатно! Внесите свою лепту в развитие PiratBit!
    Комментировать посты могут только пользователи прошедшие не сложную регистрацию
    Показать сообщения:    

    Охотники за душами через торрент
    Скачать бесплатно Охотники за душами
    Охотники за душами скачать торрент
    Охотники за душами смотреть онлайн
    Cкачать фильм Охотники за душами бесплатно
    Охотники за душами скачать торрент в хорошем качестве
    Охотники за душами смотреть онлайн бесплатно в хорошем качестве


    Вы не можете начинать темы
    Вы не можете отвечать на сообщения
    Вы не можете редактировать свои сообщения
    Вы не можете удалять свои сообщения
    Вы не можете голосовать в опросах
    Вы не можете прикреплять файлы к сообщениям
    Вы можете скачивать файлы