Ссылка на приватное зеркало нашего сайта всего за 1$. Внимание количество ограничено!!!

2 сезон

iTunes

1 сезон

1

2 сезон

2 сезон

iTunes

1 сезон

RePack

30

Ultimate

ВАЖНО

ИГРА 18+

pack

RePack

MK11
pack

Забери бонус

RePack

jed

!!Акция!!

Alien_Rage

RePack

fifa19

RePack

Assassins Creed: Odyssey

RePack

NEED FOR SPEED™ PAYBACK

4 сезон

9 сезон

Бесстыжие 9 сезон

Все сериалы

все сериалы на PB.wtf

RePack

FAR CRY 5
  

Джонатан Стрендж и мистер Норрелл / Jonathan Strange & Mr Norrell / Сезон: 1 / Серии: 1-7 из 7 (Тоби Хэйнс) [2015, фэнтези, история, BDRemux 1080i] [MVO] (AlexFilm) pb.wtf

Джонатан Стрендж и мистер Норрелл через торрент pb.wtf

Размер: 76.18 GB | Добавлен: 1 год 8 мес. назад | Торрент скачан:6 раз
Скачать  

24-03-2019 07:44 Джонатан Стрендж и мистер Норрелл Скачать торрент  

Джонатан Стрендж и мистер Норрелл / Jonathan Strange & Mr Norrell Год выпуска: 2015
Страна: Великобритания
Жанр: фэнтези, история
Продолжительность: 7х ~ 01:00:00
Озвучание: Профессиональное (многоголосое закадровое) (AlexFilm)

Режиссёр: Тоби Хэйнс

В ролях: Марк Уоррен, Эрион Бакаре, Берти Карвел, Энцо Чиленти, Элис Энглерт, Винсент Франклин, Джон Хеффернан, Эдвард Хогг, Пол Кэй, Эдди Марсан

Описание: История начинается в альтернативной Англии XIX века в период Наполеоновских войн. Английская магия, когда-то утраченная возвращается благодаря консервативному Гильберту Норреллу и дерзкому новичку Джонатану Стренджу. Мистер Норрелл воскрешает невесту высокопоставленного правительственного чиновника, заключив для этого сделку с потусторонними силами, тем самым запустив череду непредсказуемых и трагических событий.

Перевод: Константин Кривоногов
Монтаж и сведение звука: Михаил Шорыгин
Роли озвучивали:Евгения Тихонова
Роман Сопко
Михаил Суслов
Владимир Курдов
Константин Погодаев



Сэмпл: http://sendfile.su/1484113

Качество: BDRemux 1080i
Контейнер: MKV
Видео: MPEG-4 AVC Video / ~19992 kbps / 1080p / 25 fps / 16:9 / High Profile 4.1
Аудио 1: Русский 48 kHz, AC3 Dolby Digital, 2/0 (L,R) ch, 640.00 kbps
Аудио 2: Английский DTS-HD Master Audio / 5.1 / 48 kHz / 1858 kbps / 16-bit
Субтитры: Английские форсированные
Реклама:Отсутствует
01.Друзья английской магии
02.Как поживает леди Поул?
03.Обучение волшебника
04.Все зеркала на свете
05.Арабелла
06.Чёрная башня
07.Джонатан Стрендж и мистер Норрелл
Complete name : ................................................Jonathan.Strange.and.Mr.Norrell.s01e01.Rus.AlexFilm.BDRemux.1080i.RGzsRutracker.mkv
Format : Matroska
Format version : Version 4 / Version 2
File size : 9.36 GiB
Duration : 59 min 33 s
Overall bit rate mode : Variable
Overall bit rate : 22.5 Mb/s
Encoded date : UTC 2019-03-23 16:38:29
Writing application : mkvmerge v31.0.0 ('Dolores In A Shoestand') 64-bit
Writing library : libebml v1.3.6 + libmatroska v1.4.9

Video
ID : 1
Format : AVC
Format/Info : Advanced Video Codec
Format profile : High@L4.1
Format settings : CABAC / 4 Ref Frames
Format settings, CABAC : Yes
Format settings, RefFrames : 4 frames
Codec ID : V_MPEG4/ISO/AVC
Duration : 59 min 33 s
Bit rate mode : Variable
Bit rate : 20.0 Mb/s
Maximum bit rate : 35.0 Mb/s
Width : 1 920 pixels
Height : 1 080 pixels
Display aspect ratio : 16:9
Frame rate mode : Constant
Frame rate : 25.000 FPS
Color space : YUV
Chroma subsampling : 4:2:0
Bit depth : 8 bits
Scan type : Progressive
Bits/(Pixel*Frame) : 0.386
Stream size : 8.32 GiB (89%)
Title : MPEG-4 AVC Video / ~19992 kbps / 1080p / 25 fps / 16:9 / High Profile 4.1
Language : English
Default : Yes
Forced : No

Audio #1
ID : 2
Format : AC-3
Format/Info : Audio Coding 3
Codec ID : A_AC3
Duration : 59 min 1 s
Bit rate mode : Constant
Bit rate : 640 kb/s
Channel(s) : 2 channels
Channel positions : Front: L R
Sampling rate : 48.0 kHz
Frame rate : 31.250 FPS (1536 SPF)
Bit depth : 16 bits
Compression mode : Lossy
Stream size : 270 MiB (3%)
Title : AlexFilm
Language : Russian
Service kind : Complete Main
Default : Yes
Forced : No

Audio #2
ID : 3
Format : DTS
Format/Info : Digital Theater Systems
Format profile : MA / Core
Codec ID : A_DTS
Duration : 59 min 33 s
Bit rate mode : Variable / Constant
Bit rate : 1 858 kb/s / 1 509 kb/s
Channel(s) : 6 channels
Channel positions : Front: L C R, Side: L R, LFE
Sampling rate : 48.0 kHz
Frame rate : 93.750 FPS (512 SPF)
Bit depth : 16 bits
Compression mode : Lossless / Lossy
Stream size : 792 MiB (8%)
Title : DTS-HD Master Audio / 5.1 / 48 kHz / 1858 kbps / 16-bit
Language : English
Default : No
Forced : No

Text
ID : 4
Format : PGS
Muxing mode : zlib
Codec ID : S_HDMV/PGS
Codec ID/Info : Picture based subtitle format used on BDs/HD-DVDs
Duration : 3 s 680 ms
Bit rate : 241 kb/s
Count of elements : 4
Stream size : 108 KiB (0%)
Title : Forced
Language : English
Default : Yes
Forced : No

Menu
00:00:00.000 : en:Chapter 1
00:07:56.000 : en:Chapter 2
00:17:43.280 : en:Chapter 3
00:28:34.800 : en:Chapter 4
00:41:21.280 : en:Chapter 5
00:48:29.200 : en:Chapter 6
скриншот  скриншот  скриншот  
pb.wtf



Скачать Джонатан Стрендж и мистер Норрелл через торрент https://i109.fastpic.ru/big/2019/0323/e1/1f4bec668862f0fdbd0c623ebee8dee1.png Скачать фильм Джонатан Стрендж и мистер Норрелл через торрент бесплантно в хорошем качестве Описание: История начинается в альтернативной Англии XIX века в период Наполеоновских войн. Английская магия, когда-то утраченная ... 5.5 10 2
Торрент: Зарегистрирован [2019-03-24 07:44] · скачан: 6 раз
Статус: √ проверено
Размер: 76.18 GB
Как cкачать? Как скачать Джонатан Стрендж и мистер Норрелл через торрент | qTorrent

28-11-2019 20:33  

Отключить всю рекламу на сайте

24-03-2019 08:09 Джонатан Стрендж и мистер Норрелл Скачать торрент  

Англии XIX века в период Наполеоновских войн ?????? ЭТО КАК ??pb.wtf



24-03-2019 09:41 Джонатан Стрендж и мистер Норрелл Скачать торрент  

emelchev писал(а):

Англии XIX века в период Наполеоновских войн ?????? ЭТО КАК ??

а словосочетание " в альтернативной Англии XIX века в период Наполеоновских войн" ни на какие мысли не наводит ? facepalmpb.wtf



    Дорогой пользователь! Огромная просьба, поблагодарите релизера, оцените раздачу и оставьте свои комментарий, если Вы скачали Джонатан Стрендж и мистер Норрелл через торрент бесплатно! Внесите свою лепту в развитие PiratBit!
    Комментировать посты могут только пользователи прошедшие не сложную регистрацию
    Показать сообщения:    

    Джонатан Стрендж и мистер Норрелл через торрент
    Скачать бесплатно Джонатан Стрендж и мистер Норрелл
    Джонатан Стрендж и мистер Норрелл скачать торрент
    Джонатан Стрендж и мистер Норрелл смотреть онлайн
    Cкачать фильм Джонатан Стрендж и мистер Норрелл бесплатно
    Джонатан Стрендж и мистер Норрелл скачать торрент в хорошем качестве
    Джонатан Стрендж и мистер Норрелл смотреть онлайн бесплатно в хорошем качестве


    Вы не можете начинать темы
    Вы не можете отвечать на сообщения
    Вы не можете редактировать свои сообщения
    Вы не можете удалять свои сообщения
    Вы не можете голосовать в опросах
    Вы не можете прикреплять файлы к сообщениям
    Вы можете скачивать файлы