Ссылка на приватное зеркало всего за 1$. Внимание количество ограничено!!!

OK

1+1

iTunes

мы

OK

1

WEB-DLRip

Джокер

Пифагор

Ведьмак / The Witcher сериал

iTunes

ПШазам

ОК

Оно 2

iTunes

30
pack

Вам бонус

ВАЖНО

!!Акция!!

Alien_RageХит недели

RePack

Resident Evil 21

ИГРА 18+

pack

RePack

jed

RePack

fifa19

RePack

Assassins Creed: Odyssey

RePack

NEED FOR SPEED™ PAYBACK

4 сезон

9 сезон

Бесстыжие 9 сезон

Все сериалы

все сериалы на PB.wtf

RePack

FAR CRY 5
  

Лазарат / Lazarat (Уильям Кауфман) [2019 г., Боевик, Триллер, Криминал, WEB-DL 720p, Любительский (многоголосый)(Синема УС)] pb.wtf

Лазарат через торрент pb.wtf

Раздают: 1 [ 0 KB/s ]
Размер: 4.22 GB | Добавлен: 10 мес. назад | Торрент скачан:230 раз
Скачать  

25-03-2019 05:14 Лазарат Скачать торрент  

Лазарат / Lazarat
Год выпуска: 2019
Страна: США
Жанр: Боевик, Триллер, Криминал
Продолжительность: 01:43:51
Перевод: Любительский (многоголосый)(Синема УС)
Субтитры: Отсутствуют

Режиссер: Уильям Кауфман

rating

В ролях: Арманд Ассанте, Луис Мэндилор, Игорь Жижикин, Равшана Куркова, Менсур Сафкиу, Радослав Парванов, Гоша Куценко, Сонни Пузикас, Иса Заруи, Иван Макаревич

Описание: Действие триллера, основанного на реальных событиях, разворачивается в самом сердце Албании. Перед зрителем предстает мир, полный наркотиков, преступности, обмана, позора и опасности, скрывающихся на каждом углу.
В центре сюжета — история реального противостояния местных жителей и полиции, которая пыталась ограничить бурную деятельность селян, связанную с производству наркотиков.

Доп. информация: Присутствуют вставки текстовой, аудио и видео рекламы

Качество: WEB-DL 720p
Формат: MKV
Видео кодек: H.264
Аудио кодек: AC3
Видео: AVC/H.264, 1280x536 (2.40:1), ~5431 Kbps, 23.976 fps
Аудио#1: AC3, 2 ch, 384 Kbps
скриншот   скриншот   скриншот   скриншот  

Общее
Уникальный идентификатор : 203454016927609270274608439095914574988 (0x990FD17F6E09E5D6B3CDC104623AB48C)
Полное имя : /Users/Lazarat.2019.WEB-DL.720p.mkv
Формат : Matroska
Версия формата : Version 2
Размер файла : 4,22 Гбайт
Продолжительность : 1 ч. 43 м.
Режим общего битрейта : Переменный
Общий поток : 5816 Кбит/сек
Дата кодирования : UTC 2019-03-23 19:45:54
Программа кодирования : mkvmerge v8.3.0 ('Over the Horizon') 64bit
Библиотека кодирования : libebml v1.3.1 + libmatroska v1.4.2

Видео
Идентификатор : 1
Формат : AVC
Формат/Информация : Advanced Video Codec
Профиль формата : High@L4.1
Настройки формата : CABAC / 4 Ref Frames
Параметр CABAC формата : Да
Параметр ReFrames формата : 4 кадра
Идентификатор кодека : V_MPEG4/ISO/AVC
Продолжительность : 1 ч. 43 м.
Вид битрейта : Переменный
Битрейт : 5431 Кбит/сек
Максимальный битрейт : 6000 Кбит/сек
Ширина : 1280 пикселей
Высота : 536 пикселей
Соотношение сторон : 2,40:1
Режим частоты кадров : Постоянный
Частота кадров : 23,976 (24000/1001) кадра/сек
Стандарт вещания : Component
Цветовое пространство : YUV
Субдискретизация насыщенности : 4:2:0
Битовая глубина : 8 бит
Тип развёртки : Прогрессивная
Бит/(Пиксели*Кадры) : 0.330
Размер потока : 3,94 Гбайт (93%)
Default : Да
Forced : Нет
Цветовой диапазон : Limited
Основные цвета : BT.709
Характеристики трансфера : BT.709
Коэффициенты матрицы : BT.709

Аудио
Идентификатор : 2
Формат : AC-3
Формат/Информация : Audio Coding 3
Коммерческое название : Dolby Digital
Идентификатор кодека : A_AC3
Продолжительность : 1 ч. 43 м.
Вид битрейта : Постоянный
Битрейт : 384 Кбит/сек
Каналы : 2 канала
Channel layout : L R
Частота : 48,0 КГц
Частота кадров : 31,250 кадров/сек (1536 SPF)
Битовая глубина : 16 бит
Метод сжатия : С потерями
Размер потока : 285 Мбайт (7%)
Service kind : Complete Main
Default : Да
Forced : Нет

pb.wtf



Скачать Лазарат через торрент http://pic1.kartinco.top/images/12/v91f9.jpg Скачать фильм Лазарат через торрент бесплантно в хорошем качестве Описание: Действие триллера, основанного на реальных событиях, разворачивается в самом сердце Албании. Перед зрителем предстает мир, полный ... 8.5 10 6
Торрент: Зарегистрирован [2019-03-25 05:14] · скачан: 230 раз
Статус: T временная
Размер: 4.22 GB
Как cкачать? Как скачать Лазарат через торрент | qTorrent

% Раздел Тема Автор DL S | L
Фильмы (WEB-DL 720p, 1080p) [ 3.5 GB ] Последний бросок / Лазарат / Lazarat [2019 WEB-DL 1080p] bober100 Скачать
4 | 0
Фильмы 2019-2020 [DVDrip, WEB-DLRip, HDrip] (DUB, MVO) [ 2.05 GB ] Последний бросок / Лазарат / Lazarat [2019 WEB-DLRip] bober100 Скачать
8 | 0
Фильмы 2019-2020 [DVDrip, WEB-DLRip, HDrip] (DUB, MVO) [ 1.46 GB ] Последний бросок / Лазарат / Lazarat [2019 WEB-DLRip] bober100 Скачать
18 | 0
Фильмы (WEB-DL 720p, 1080p) [ 3.13 GB ] Последний бросок / Лазарат / Lazarat [2019 WEB-DL 720p] bober100 Скачать
6 | 0
T Фильмы (WEB-DL 720p, 1080p) [ 3.67 GB ] Лазарат / Lazarat [2019 WEB-DL 1080p] MVO [HDRezka Studio] - ExKinoRay Enigma2010 Скачать
1 | 0
T Фильмы 2019-2020 [DVDrip, WEB-DLRip, HDrip] (DUB, MVO) [ 1.75 GB ] Лазарат / Lazarat [2019 WEB-DLRip-AVC] MVO [HDRezka Studio] - ExKinoRay Enigma2010 Скачать
3 | 0
T Фильмы 2019-2020 [DVDrip, WEB-DLRip, HDrip] (DUB, MVO) [ 1.46 GB ] Лазарат / Lazarat / The Brave [2019 WEB-DLRip] [MVO] killermax2013 Скачать
4 | 0

28-11-2019 20:33  

Отключить всю рекламу на сайте

25-03-2019 15:53 Лазарат Скачать торрент  

за релиз автору спасибо,но фильмец гамно редкое.pb.wtf



26-03-2019 17:57 Лазарат Скачать торрент  

Куценка, ну ты то куда..Албания)pb.wtf



31-03-2019 08:10 Лазарат Скачать торрент  

Ладно Куценко,а Ваня Макаревич?)))Может я конечно что не понимаю, но он со своими усиками в довесок к вневзрачной совершенно внешности , таланта особого я в нем тоже разглядеть не смог.....Ни в одной ленте ,где он снялся, не смог .Но кто то же его постоянно проталкивает, в "Бригаду" ту же самую.pb.wtf



31-03-2019 08:11 Лазарат Скачать торрент  

nafig1976 писал(а):

за релиз автору спасибо,но фильмец гамно редкое.

Гамно , я бы сказал КЛАССИЧЕСКОЕ)))pb.wtf



    Дорогой пользователь! Огромная просьба, поблагодарите релизера, оцените раздачу и оставьте свои комментарий, если Вы скачали Лазарат через торрент бесплатно! Внесите свою лепту в развитие PiratBit!
    Комментировать посты могут только пользователи прошедшие не сложную регистрацию
    Показать сообщения:    

    Лазарат через торрент
    Скачать бесплатно Лазарат
    Лазарат скачать торрент
    Лазарат смотреть онлайн
    Cкачать фильм Лазарат бесплатно
    Лазарат скачать торрент в хорошем качестве
    Лазарат смотреть онлайн бесплатно в хорошем качестве


    Вы не можете начинать темы
    Вы не можете отвечать на сообщения
    Вы не можете редактировать свои сообщения
    Вы не можете удалять свои сообщения
    Вы не можете голосовать в опросах
    Вы не можете прикреплять файлы к сообщениям
    Вы можете скачивать файлы