новый адрес
Ссылка на приватное зеркало всего за 1$. Внимание количество ограничено!!!

iTunes

1+1

iTunes

мы

WEB-DL

1

iTunes

Чернобыль

iTunes

Ральф против интернета

Лицензия

ПШазам

Лицензия

Оно 2

Лицензия

30
pack

Вам бонус

ВАЖНО

!!Акция!!

Alien_RageХит недели

RePack

Resident Evil 21

ИГРА 18+

pack

RePack

jed

!!Акция!!

Alien_Rage

RePack

fifa19

RePack

Assassins Creed: Odyssey

RePack

NEED FOR SPEED™ PAYBACK

3 сезон

9 сезон

Бесстыжие 9 сезон

Все сериалы

все сериалы на PB.wtf

RePack

FAR CRY 5
Ребята, катастрофически не хватает 1900р. для оплаты серверов за Октябрь (всвязи с блокировками трафик упал в 3 раза), 1-2р., выручайте.
  

Без страха и упрёка (Александр Митта) [1962, СССР, драма, приключения, семейный, DVDRip от AVP Studio] pb.wtf

Без страха и упрёка через торрент pb.wtf

Размер: 1.09 GB | Добавлен: 8 мес. назад | Торрент скачан:9 раз
Скачать  

25-03-2019 07:43 Без страха и упрёка Скачать торрент  

Без страха и упрёка
Страна: СССР
Производство: Мосфильм

Жанр: драма, приключения, семейный
Год выпуска: 1963
Продолжительность: 01:20:04

Перевод: Не требуется
Cубтитры: нет
Оригинальная аудиодорожка: русский

Режиссер: Александр Митта

В ролях:
Алла Витрук, Витя Глазков, Николай Бурляев, Савелий Крамаров, Николай Волков (старший), Лев Золотухин, Марианна Стриженова, Клавдия Шинкина, Людмила Марченко, Анатолий Юшко, Елена Максимова, Николай Кодин, Владимир Лебедев...
Об актёрах подробней

Описание:
В Москве Репнин должен был отгрузить оборудование и сразу же вылететь в Заусолье, где его ждала экспедиция. Но в московской сутолоке Репнин потерял деньги, которые нашли Вадик, Юра и Тоша. Дети вошли в положение пострадавшего и решили найти его. Ключом к поискам стала программа рысистых испытаний, в которую были завернуты деньги. Однако дорога на ипподром оказалась длинной и интересной...

Источник: DVD5 R5
Качество видео: DVDRip
Формат видео: AVI

Видео: 688х512 (4:3), 25,000 fps, XviD ~ 1743 kbps avg, 0.198 bit/pixel
Аудио: 48 kHz, Dolby Digital AC3 2.0, 192 kbps

Раздача от:
Общее
Полное имя : Bez.straha.i.upreka.1963.DVDRip_[New-team]_by_AVP_Studio.avi
Формат : AVI
Формат/Информация : Audio Video Interleave
Размер файла : 1,09 Гбайт
Продолжительность : 1 ч. 20 м.
Общий поток : 1945 Кбит/сек
Программа кодирования : VirtualDubMod 1.5.10.3 | www.virtualdub-fr.org || (build 2550/release)
Библиотека кодирования : VirtualDubMod build 2550/release

Видео
Идентификатор : 0
Формат : MPEG-4 Visual
Профиль формата : Advanced Simple@L5
Настройки формата : BVOP1 / Custom Matrix
Параметр BVOP формата : 1
Параметр QPel формата : Нет
Параметр GMC формата : Без точки перехода
Параметр матрицы формата : Выборочная
Идентификатор кодека : XVID
Идентификатор кодека/Подсказка : XviD
Продолжительность : 1 ч. 20 м.
Битрейт : 1743 Кбит/сек
Ширина : 688 пикселей
Высота : 512 пикселей
Соотношение сторон : 4:3
Частота кадров : 25,000 кадров/сек
Цветовое пространство : YUV
Субдискретизация насыщенности : 4:2:0
Битовая глубина : 8 бит
Тип развёртки : Прогрессивная
Метод сжатия : С потерями
Бит/(Пиксели*Кадры) : 0.198
Размер потока : 998 Мбайт (90%)
Библиотека кодирования : XviD 73

Аудио
Идентификатор : 1
Формат : AC-3
Формат/Информация : Audio Coding 3
Коммерческое название : Dolby Digital
Идентификатор кодека : 2000
Продолжительность : 1 ч. 20 м.
Вид битрейта : Постоянный
Битрейт : 192 Кбит/сек
Каналы : 2 канала
Channel layout : L R
Частота : 48,0 КГц
Частота кадров : 31,250 кадров/сек (1536 SPF)
Битовая глубина : 16 бит
Метод сжатия : С потерями
Размер потока : 110 Мбайт (10%)
Выравнивание : Разделение по промежуткам
Продолжительность промежутка : 40 мс. (1,00 видеокадр)
Время предзагрузки промежутка : 500 мс
pb.wtf



Скачать Без страха и упрёка через торрент http://picplus.ru/img/1903/25/2539b079.png Скачать фильм Без страха и упрёка через торрент бесплантно в хорошем качестве Описание:В Москве Репнин должен был отгрузить оборудование и сразу же вылететь в Заусолье, где его ждала экспедиция. Но в московской ... 10 10 1
Торрент: Зарегистрирован [2019-03-25 07:43] · скачан: 9 раз
Статус: √ проверено
Размер: 1.09 GB
Как cкачать? Как скачать Без страха и упрёка через торрент | qTorrent

% Раздел Тема Автор DL S | L
Кино СССР [ 1.09 GB ] Без страха и упрёка [1962 СССР DVDRip-AVC от AVP Studio] AVP Studio Скачать
1 | 0

28-11-2019 20:33  

Отключить всю рекламу на сайте

    Дорогой пользователь! Огромная просьба, поблагодарите релизера, оцените раздачу и оставьте свои комментарий, если Вы скачали Без страха и упрёка через торрент бесплатно! Внесите свою лепту в развитие PiratBit!
    Комментировать посты могут только пользователи прошедшие не сложную регистрацию
    Показать сообщения:    

    Без страха и упрёка через торрент
    Скачать бесплатно Без страха и упрёка
    Без страха и упрёка скачать торрент
    Без страха и упрёка смотреть онлайн
    Cкачать фильм Без страха и упрёка бесплатно
    Без страха и упрёка скачать торрент в хорошем качестве
    Без страха и упрёка смотреть онлайн бесплатно в хорошем качестве


    Вы не можете начинать темы
    Вы не можете отвечать на сообщения
    Вы не можете редактировать свои сообщения
    Вы не можете удалять свои сообщения
    Вы не можете голосовать в опросах
    Вы не можете прикреплять файлы к сообщениям
    Вы можете скачивать файлы