Ссылка на приватное зеркало всего за 1$. Внимание количество ограничено!!!

OK

1+1

iTunes

мы

OK

1

WEB-DLRip

Джокер

Пифагор

Ведьмак / The Witcher сериал

iTunes

ПШазам

ОК

Оно 2

iTunes

30
pack

Вам бонус

ВАЖНО

!!Акция!!

Alien_RageХит недели

RePack

Resident Evil 21

ИГРА 18+

pack

RePack

jed

RePack

fifa19

RePack

Assassins Creed: Odyssey

RePack

NEED FOR SPEED™ PAYBACK

4 сезон

9 сезон

Бесстыжие 9 сезон

Все сериалы

все сериалы на PB.wtf

RePack

FAR CRY 5
  

Репродукция / Replicas (Джеффри Начманофф) [2018, фантастика, триллер, BDRip 1080p] Дубляж - [iTunes] pb.wtf

Репродукция через торрент pb.wtf

Раздают: 2 [ 11 KB/s ]
Размер: 10.86 GB | Добавлен: 10 мес. назад | Торрент скачан:515 раз
Скачать  

25-03-2019 10:31 Репродукция Скачать торрент  

Репродукция / Replicas««Он сделал это»»

Год выпуска: 2018
Страна: США
Жанр: фантастика, триллер
Продолжительность: 01:42:52
Перевод: Дублированный | iTunes
Субтитры: Английские (полные, SDH)
Режиссер: Джеффри Начманофф
В ролях:

Киану Ривз (Will Foster), Элис Ив (Mona), Эмили Элин Линд (Sophie), Эмджей Энтони (Matt Foster), Джон Ортис (Jones), Томас Миддлдитч (Ed), Эмбер Таунсенд (Lab Tech), Няша Хатенди (Scott), Ария Лайрик Либу (Zoe Foster), Эмбер Ривера (Margaret), Саншайн Логроньо (Hector), Эвелин Дин-Олмстед (Lab Tech)
Описание:
Талантливый учёный-биолог теряет в автокатастрофе свою семью. Одержимый желанием вернуть к жизни жену и детей, он преступает законы научной этики и самой природы.
Рейтинг:

MPAA: PG-13 - Детям до 13 лет просмотр не желателен
Качество: BDRip 1080p
Формат: MKV
Видео: 1920x804 (2.40:1), 23,976 fps, x264 ~13.5 Mbps avg, 0.365 bit/pixel
Аудио #1: 48 kHz, AC3 Dolby Digital, 3/2 (L,C,R,l,r) + LFE ch, ~384.00 kbps avg | RUS (iTunes)
Аудио #1: 48 kHz, AC3 Dolby Digital, 3/2 (L,C,R,l,r) + LFE ch, ~640.00 kbps avg | ENG
Навигация по главам: есть
Общее
Уникальный идентификатор : 328304549593024605517172385383471353664 (0xF6FD2802E1CFF2222B73781FB75B8F40)
Полное имя : F:\OlLanDGroup\Replicas.2018.BDRip(1080p).OllanDGroup.mkv
Формат : Matroska
Версия формата : Version 4 / Version 2
Размер файла : 10,9 Гбайт
Продолжительность : 1 ч. 47 м.
Общий поток : 14,5 Мбит/сек
Название фильма : Replicas.2018 #TorpedoUK#
Дата кодирования : UTC 2019-03-25 09:56:45
Программа кодирования : mkvmerge v29.0.0 ('Like It Or Not') 64-bit
Библиотека кодирования : libebml v1.3.6 + libmatroska v1.4.9

Видео
Идентификатор : 1
Формат : AVC
Формат/Информация : Advanced Video Codec
Профиль формата : High@L4.1
Параметр CABAC формата : Да
Параметр ReFrames формата : 5 кадров
Идентификатор кодека : V_MPEG4/ISO/AVC
Продолжительность : 1 ч. 47 м.
Битрейт : 13,5 Мбит/сек
Ширина : 1920 пикселей
Высота : 804 пикселя
Соотношение сторон : 2,40:1
Режим частоты кадров : Постоянный
Частота кадров : 23,976 (24000/1001) кадра/сек
Цветовое пространство : YUV
Субдискретизация насыщенности : 4:2:0
Битовая глубина : 8 бит
Тип развёртки : Прогрессивная
Бит/(Пиксели*Кадры) : 0.365
Размер потока : 10,1 Гбайт (93%)
Библиотека кодирования : x264 core 155 r2867+74 66b5600 t_mod_Custom_2 [8-bit@all X86_64]
Настройки программы : cabac=1 / ref=5 / deblock=1:-3:-3 / analyse=0x3:0x133 / me=umh / subme=11 / psy=1 / fade_compensate=0.00 / psy_rd=1.00:0.00 / mixed_ref=1 / me_range=32 / chroma_me=1 / trellis=2 / 8x8dct=1 / cqm=0 / deadzone=21,11 / fast_pskip=0 / chroma_qp_offset=-2 / threads=18 / lookahead_threads=3 / sliced_threads=0 / nr=0 / decimate=0 / interlaced=0 / bluray_compat=0 / constrained_intra=0 / fgo=0 / bframes=8 / b_pyramid=2 / b_adapt=2 / b_bias=0 / direct=3 / weightb=1 / open_gop=0 / weightp=2 / keyint=250 / keyint_min=23 / scenecut=40 / intra_refresh=0 / rc=2pass / mbtree=0 / bitrate=13500 / ratetol=1.0 / qcomp=0.60 / qpmin=0:0:0 / qpmax=69:69:69 / qpstep=4 / cplxblur=20.0 / qblur=0.5 / ip_ratio=1.30 / pb_ratio=1.20 / aq=3:0.70 / aq-sensitivity=10.00 / aq-factor=1.00:1.00:1.00 / aq2=0 / aq3=0
Язык : English
Default : Да
Forced : Нет
Цветовой диапазон : Limited
Коэффициенты матрицы : BT.709

Аудио #1
Идентификатор : 2
Формат : AC-3
Формат/Информация : Audio Coding 3
Расширение режима : CM (complete main)
Параметр Endianness формата : Big
Идентификатор кодека : A_AC3
Продолжительность : 1 ч. 47 м.
Вид битрейта : Постоянный
Битрейт : 384 Кбит/сек
Каналы : 6 каналов
Расположение каналов : Front: L C R, Side: L R, LFE
Частота : 48,0 КГц
Частота кадров : 31,250 кадров/сек (1536 spf)
Битовая глубина : 16 бит
Метод сжатия : С потерями
Размер потока : 295 Мбайт (3%)
Заголовок : DUB [iTunes]
Язык : Russian
Default : Да
Forced : Нет

Аудио #2
Идентификатор : 3
Формат : AC-3
Формат/Информация : Audio Coding 3
Расширение режима : CM (complete main)
Параметр Endianness формата : Big
Идентификатор кодека : A_AC3
Продолжительность : 1 ч. 47 м.
Вид битрейта : Постоянный
Битрейт : 640 Кбит/сек
Каналы : 6 каналов
Расположение каналов : Front: L C R, Side: L R, LFE
Частота : 48,0 КГц
Частота кадров : 31,250 кадров/сек (1536 spf)
Битовая глубина : 16 бит
Метод сжатия : С потерями
Размер потока : 491 Мбайт (4%)
Заголовок : [Original]
Язык : English
Default : Нет
Forced : Нет

Текст #1
Идентификатор : 4
Формат : UTF-8
Идентификатор кодека : S_TEXT/UTF8
Идентификатор кодека/Информация : UTF-8 Plain Text
Продолжительность : 1 ч. 36 м.
Битрейт : 43 бит/сек
Count of elements : 1069
Размер потока : 31,0 Кбайт (0%)
Заголовок : Full
Язык : English
Default : Нет
Forced : Нет

Текст #2
Идентификатор : 5
Формат : UTF-8
Идентификатор кодека : S_TEXT/UTF8
Идентификатор кодека/Информация : UTF-8 Plain Text
Продолжительность : 1 ч. 36 м.
Битрейт : 50 бит/сек
Count of elements : 1239
Размер потока : 35,7 Кбайт (0%)
Заголовок : SDH
Язык : English
Default : Нет
Forced : Нет

Меню
00:00:00.000 : :Capítulo 01
00:08:29.134 : :Capítulo 02
00:17:23.834 : :Capítulo 03
00:26:59.576 : :Capítulo 04
00:33:15.076 : :Capítulo 05
00:44:10.982 : :Capítulo 06
00:52:08.667 : :Capítulo 07
01:01:46.995 : :Capítulo 08
01:09:54.440 : :Capítulo 09
01:17:47.955 : :Capítulo 10
01:26:29.518 : :Capítulo 11
01:36:33.496 : :Capítulo 12
pb.wtf



Скачать Репродукция через торрент https://c.radikal.ru/c35/1901/46/82fdb41cab39.png Скачать фильм Репродукция через торрент бесплантно в хорошем качестве Описание: Талантливый учёный-биолог теряет в автокатастрофе свою семью. Одержимый желанием вернуть к жизни жену и детей, он преступает ... 9.5 10 14
Info! Золотая раздача, скачанное не засчитывается.
Торрент: Зарегистрирован [2019-03-25 10:31] · скачан: 515 раз
Статус: √ проверено
Размер: 10.86 GB
Как cкачать? Как скачать Репродукция через торрент | qTorrent

% Раздел Тема Автор DL S | L
Фильмы (Blu-ray, BD-Remux, HDDVD) [ 27.88 GB ] Репродукция / Replicas [2018 BD Remux ] Бумер Скачать
1 | 0
Фильмы 2018 [DVDrip, WEB-DLRip, HDrip] (DUB, MVO) [ 1.41 GB ] Репродукция / Replicas [2018 BDRip] bober100 Скачать
6 | 0
Фильмы [HD 720p, 1080p] (Хороший звук DUB, MVO) [ 11 GB ] Репродукция / Replicas [2018 BDRip 1080p] +MVO [HDRezka Studio] bober100 Скачать
2 | 0
Ultra HD (UHD: 2K, 4K, 8K) — видео сверхвысокой чёткости [ 14.09 GB ] Репродукция / Replicas [2018 UHD WEBRip 2160p] + MVO [HDRezka Studio] sheker187 Скачать
1 | 0
Фильмы (HD 720p, 1080p) (48-60 fps) [ 8.91 GB ] Репродукция / Replicas [2018 BDRip 720p 60 fps] - sheker187 Скачать
2 | 0

28-11-2019 20:33  

Отключить всю рекламу на сайте

25-03-2019 19:28 Репродукция Скачать торрент  

я ожидал от этого фильма чего то большего, а фильм получился каким скомканным говном pb.wtf



    Дорогой пользователь! Огромная просьба, поблагодарите релизера, оцените раздачу и оставьте свои комментарий, если Вы скачали Репродукция через торрент бесплатно! Внесите свою лепту в развитие PiratBit!
    Комментировать посты могут только пользователи прошедшие не сложную регистрацию
    Показать сообщения:    

    Репродукция через торрент
    Скачать бесплатно Репродукция
    Репродукция скачать торрент
    Репродукция смотреть онлайн
    Cкачать фильм Репродукция бесплатно
    Репродукция скачать торрент в хорошем качестве
    Репродукция смотреть онлайн бесплатно в хорошем качестве


    Вы не можете начинать темы
    Вы не можете отвечать на сообщения
    Вы не можете редактировать свои сообщения
    Вы не можете удалять свои сообщения
    Вы не можете голосовать в опросах
    Вы не можете прикреплять файлы к сообщениям
    Вы можете скачивать файлы