новый адрес
Мега распродажа FORZA HORIZON 4 ULTIMATE+ВСЕ DLC+ОНЛАЙН всего за 499р. 349 руб. (супер цена). Внимание количество ограничено!!!

iTunes

1+1

iTunes

мы

iTunes

1

iTunes

Чернобыль

iTunes

Ральф против интернета

Лицензия

ПШазам

Лицензия

Игра престолов

Лицензия

30
pack

ВАЖНО

!!Акция!!

Alien_RageХит недели

RePack

Resident Evil 21

ИГРА 18+

pack

RePack

Metro:Exodus

!!Акция!!

Alien_Rage

RePack

fifa19

RePack

Assassins Creed: Odyssey

RePack

NEED FOR SPEED™ PAYBACK

3 сезон

9 сезон

Бесстыжие 9 сезон

Все сериалы

все сериалы на PB.wtf

RePack

FAR CRY 5
Ребята, катастрофически не хватает 1900р. для оплаты серверов за Октябрь (всвязи с блокировками трафик упал в 3 раза), 1-2р., выручайте.
  

В мёртвой петле (Николай Ильинский, Суламифь Цыбульник) [1963, СССР, драма, биография, SATRip от AVP Studio] pb.wtf

В мёртвой петле через торрент pb.wtf

Размер: 1.09 GB | Добавлен: 7 мес. назад | Торрент скачан:6 раз
Скачать  

26-03-2019 08:49 В мёртвой петле Скачать торрент  

В мёртвой петле
Страна: СССР
Производство: К/ст им. А. Довженко

Жанр: драма, биография
Год выпуска: 1963
Продолжительность: 01:17:33

Перевод: Не требуется
Cубтитры: нет
Оригинальная аудиодорожка: русский

Режиссер: Николай Ильинский, Суламифь Цыбульник

В ролях:
Олег Стриженов, Виктор Коршунов, Станислав Чекан, Александр Мовчан, Николай Лебедев, Павел Шпрингфельд, Владимир Дальский, Эльза Леждей, Ефим Копелян, Дмитрий Милютенко...
Об актёрах подробней

Описание:
Впервые о Сергее Уточкине (Олег Стриженов) заговорили в Одессе, когда он, ученик седьмого класса, выиграл велосипедные гонки у самых признанных асов. А вскоре его имя в городе стало одним из самых популярных. Любимец публики, отчаянный храбрец, он мог съехать на мотоцикле по Одесской лестнице. А когда услышал о первых летательных аппаратах, то "заболел" небом...

Исходник: DVB
Качество видео: SATRip
Формат видео: AVI

Видео: 688x512 (4:3), 25,000 кадров/сек, XviD ~ 1810 kbps avg, 0.205 bit/pixel
Аудио: 48 kHz, Dolby Digital AC3 2.0, 192 kbps

Раздача от:
Общее
Полное имя : V.mertvoy.petle.1963.SATRip_[New-team]_by_AVP_Studio.avi
Формат : AVI
Формат/Информация : Audio Video Interleave
Размер файла : 1,09 Гбайт
Продолжительность : 1 ч. 17 м.
Общий поток : 2011 Кбит/сек
Программа кодирования : VirtualDubMod 1.5.10.3 | www.virtualdub-fr.org || (build 2550/release)
Библиотека кодирования : VirtualDubMod build 2550/release

Видео
Идентификатор : 0
Формат : MPEG-4 Visual
Профиль формата : Advanced Simple@L5
Настройки формата : BVOP1 / Custom Matrix
Параметр BVOP формата : 1
Параметр QPel формата : Нет
Параметр GMC формата : Без точки перехода
Параметр матрицы формата : Выборочная
Идентификатор кодека : XVID
Идентификатор кодека/Подсказка : XviD
Продолжительность : 1 ч. 17 м.
Битрейт : 1810 Кбит/сек
Ширина : 688 пикселей
Высота : 512 пикселей
Соотношение сторон : 4:3
Частота кадров : 25,000 кадров/сек
Цветовое пространство : YUV
Субдискретизация насыщенности : 4:2:0
Битовая глубина : 8 бит
Тип развёртки : Прогрессивная
Метод сжатия : С потерями
Бит/(Пиксели*Кадры) : 0.205
Размер потока : 1004 Мбайт (90%)
Библиотека кодирования : XviD 73

Аудио
Идентификатор : 1
Формат : AC-3
Формат/Информация : Audio Coding 3
Коммерческое название : Dolby Digital
Идентификатор кодека : 2000
Продолжительность : 1 ч. 17 м.
Вид битрейта : Постоянный
Битрейт : 192 Кбит/сек
Каналы : 2 канала
Channel layout : L R
Частота : 48,0 КГц
Частота кадров : 31,250 кадров/сек (1536 SPF)
Битовая глубина : 16 бит
Метод сжатия : С потерями
Размер потока : 106 Мбайт (10%)
Выравнивание : Разделение по промежуткам
Продолжительность промежутка : 40 мс. (1,00 видеокадр)
Время предзагрузки промежутка : 500 мс
pb.wtf



Скачать В мёртвой петле через торрент http://picplus.ru/img/1903/26/4d068b11.png Скачать фильм В мёртвой петле через торрент бесплантно в хорошем качестве Описание:Впервые о Сергее Уточкине (Олег Стриженов) заговорили в Одессе, когда он, ученик седьмого класса, выиграл велосипедные гонки у ... 5 10 1
Торрент: Зарегистрирован [2019-03-26 08:49] · скачан: 6 раз
Статус: √ проверено
Размер: 1.09 GB
Как cкачать? Как скачать В мёртвой петле через торрент | qTorrent

% Раздел Тема Автор DL S | L
Кино СССР [ 1.09 GB ] В мёртвой петле [1963 СССР биография SATRip-AVC от AVP Studio] AVP Studio Скачать
1 | 0


>> Регистрируемся здесь <<






Отзывы и комментарии о схеме читаем и пишем здесь: ---> Отзывы и комментарии о схеме

Новые благодарочки в телеграм довольных пользователей:
скриншот   скриншот   скриншот   скриншот   скриншот
    Дорогой пользователь! Огромная просьба, поблагодарите релизера, оцените раздачу и оставьте свои комментарий, если Вы скачали В мёртвой петле через торрент бесплатно! Внесите свою лепту в развитие PiratBit!
    Комментировать посты могут только пользователи прошедшие не сложную регистрацию
    Показать сообщения:    

    В мёртвой петле через торрент
    Скачать бесплатно В мёртвой петле
    В мёртвой петле скачать торрент
    В мёртвой петле смотреть онлайн
    Cкачать фильм В мёртвой петле бесплатно
    В мёртвой петле скачать торрент в хорошем качестве
    В мёртвой петле смотреть онлайн бесплатно в хорошем качестве


    Вы не можете начинать темы
    Вы не можете отвечать на сообщения
    Вы не можете редактировать свои сообщения
    Вы не можете удалять свои сообщения
    Вы не можете голосовать в опросах
    Вы не можете прикреплять файлы к сообщениям
    Вы можете скачивать файлы