2 сезон

iTunes

1 сезон

1

iTunes

iTunes

iTunes

1 сезон

RePack

30

ИГРА 18+

pack

ВАЖНО

!!Акция!!

Alien_RageХит недели

RePack

MK11
pack

Забери бонус

RePack

jed

!!Акция!!

Alien_Rage

RePack

fifa19

RePack

Assassins Creed: Odyssey

RePack

NEED FOR SPEED™ PAYBACK

4 сезон

9 сезон

Бесстыжие 9 сезон

Все сериалы

все сериалы на PB.wtf

RePack

FAR CRY 5
  

Годунов.Продолжение Сезон: 2 / Серии: 1-9 из 9 (Алексей Андрианов, Тимур Алпатов) [2019 г., Драма, история, HDTV 1080p] pb.wtf

Годунов.Продолжение Сезон: 2 через торрент pb.wtf

Размер: 21.76 GB | Добавлен: 1 год 7 мес. назад | Торрент скачан:155 раз
Скачать  

26-03-2019 10:12 Годунов.Продолжение Сезон: 2 Скачать торрент  

Годунов.Продолжение
Год выпуска: 2019
Страна: Россия
Жанр: Драма, история
Продолжительность: 9 х ~ 00:50:00
Субтитры: Отсутствуют

Режиссер: Алексей Андрианов, Тимур Алпатов

В ролях: Сергей Безруков, Светлана Ходченкова, Сергей Маковецкий, Виктор Сухоруков, Александр Устюгов, Мария Андреева, Андрей Мерзликин, Анна Михалкова, Фёдор Лавров, Владимир Стеклов, Ирина Пегова, Антон Кузнецов, Анна Ковальчук, Александр Горбатов (II), Евгений Цыганов, Александр Ильин ст., Юрий Беляев, Лев Прыгунов, Артём Алексеев (II), Александр Семчев, Евгений Ткачук, Борис Плотников, Сергей Никоненко, Станислав Говорухин, Юрий Колокольников, Екатерина Васильева (II), Диана Чечель, Юрий Коноплянников, Клим Бердинский, Лев Бердинский, Владимир Скробан, Ярослав Ефременко, Андрюс Паулавичюс, Вайдотас Мартинайтис, Ремигиюс Сабулис, Лаймутис Седжюс, Альбинас Келярис, Александр Пашутин, Николай Козак

Описание: Вторая часть масштабной саги "Годунов" охватывает годы Смутного времени. Это продолжение истории любви, истории России и истории семьи Годуновых. Борис, первый избранный царь на Руси, обещал расцвет и усиление государства. Но голод, эпидемии и бедствия не дали надеждам сбыться. Потеряв уверенность в своих силах, Борис Годунов допускает роковые ошибки, не отличая друзей от врагов... Начинаются времена переворотов, тревог и больших потрясений. Крушение власти, политические игры, волна самозванства, народные восстания…

Качество: HDTV 1080p
Формат: MKV
Видео кодек: H.264
Аудио кодек: AC3
Видео: AVC, 1920x1080 (16:9), 7050 kbps, 25 fps, 0,136 bpp
Аудио#1: AC3 , 2.0, 48.0 kHz ,192 kbps .
скриншот   скриншот   скриншот   скриншот  

General
Unique ID : 192046948178504780575260545944425713059 (0x907AE596291325988468C6FE8245CDA3)
Complete name : E:\Запись с тв\Godunov S02 2019.HDTV 1080p.RG GeneralFilm\Godunov.s02.e01.2019.HDTV 1080p.by.White Smoke.R.G.Generalfilm.mkv
Format : Matroska
Format version : Version 4 / Version 2
File size : 2.69 GiB
Duration : 53 min 28 s
Overall bit rate mode : Constant
Overall bit rate : 7 196 kb/s
Movie name : Godunov.s02.e01.2019.HDTV 1080p.by.White Smoke.R.G.Generalfilm.mkv
Encoded date : UTC 2019-03-25 23:40:41
Writing application : mkvmerge v6.8.0 ('Theme for Great Cities') 64bit built on Mar 2 2014 21:34:26
Writing library : libebml v1.3.0 + libmatroska v1.4.1
Cover : Yes
Attachments : cover.jpg

Video
ID : 1
Format : AVC
Format/Info : Advanced Video Codec
Format profile : High@L4.1
Format settings : CABAC / 3 Ref Frames
Format settings, CABAC : Yes
Format settings, ReFrames : 3 frames
Format settings, GOP : M=3, N=33
Codec ID : V_MPEG4/ISO/AVC
Duration : 53 min 28 s
Bit rate mode : Constant
Bit rate : 7 051 kb/s
Width : 1 920 pixels
Height : 1 080 pixels
Display aspect ratio : 16:9
Frame rate mode : Constant
Frame rate : 25.000 FPS
Standard : PAL
Color space : YUV
Chroma subsampling : 4:2:0
Bit depth : 8 bits
Scan type : Progressive
Bits/(Pixel*Frame) : 0.136
Stream size : 2.56 GiB (95%)
Default : Yes
Forced : No
Color range : Limited
Color primaries : BT.709
Transfer characteristics : BT.709
Matrix coefficients : BT.709

Audio
ID : 2
Format : AC-3
Format/Info : Audio Coding 3
Commercial name : Dolby Digital
Codec ID : A_AC3
Duration : 53 min 28 s
Bit rate mode : Constant
Bit rate : 192 kb/s
Channel(s) : 2 channels
Channel layout : L R
Sampling rate : 48.0 kHz
Frame rate : 31.250 FPS (1536 SPF)
Bit depth : 16 bits
Compression mode : Lossy
Stream size : 73.4 MiB (3%)
Service kind : Complete Main
Default : Yes
Forced : No

Внимание! Раздача ведётся путём добавления новых серий; при каждом добавлении создётся новый торрент. Чтобы начать докачку новой серии, пользователям необходимо сделать следующее:
  • Остановить скачивание,
  • Удалить старый торрент у себя из клиента (старые серии удалять не надо),
  • Скачать новый торрент и запустить его у себя в клиенте вместо старого, при этом указать клиенту путь в старую папку куда и должно происходить скачивание новых серий.
Ваш клиент при этом должен произвести хеширование (проверку) старой папки (если не производит сам - помогите ему сделать это), и будет докачивать только те серии которых у вас ещё нет. Старые серии при этом не удаляются, а продолжают раздаваться!

Eсли вы уже удалили старые серии, то предотвратить повторную закачку старых серий можно, отжав галочку в соответсвующих местах при запуске нового торрента. По возможности, желательно не удалять старые серии как можно дольше чтобы релизёр не столько продолжал раздавать старые серии, а смог сконцентрироваться на новых.
pb.wtf



Скачать Годунов.Продолжение Сезон: 2 через торрент http://pic1.kartinco.top/images/12/32mxk.jpg Скачать фильм Годунов.Продолжение Сезон: 2 через торрент бесплантно в хорошем качестве Описание: Вторая часть масштабной саги "Годунов" охватывает годы Смутного времени. Это продолжение истории любви, истории России и истории ... 9.8 10 21
Info! Золотая раздача, скачанное не засчитывается.
Торрент: Зарегистрирован [2019-03-30 10:45] · скачан: 155 раз
Статус: √ проверено
Размер: 21.76 GB
Как cкачать? Как скачать Годунов.Продолжение Сезон: 2 через торрент | qTorrent

% Раздел Тема Автор DL S | L
Наши сериалы [ 5.75 GB ] Годунов. Продолжение / Сезон: 2 / Серии: 1-9 из 9 [2019 история WEB-DLRip] oleg8 Скачать
1 | 0
Наши сериалы [ 24.08 GB ] Годунов. Продолжение / Сезон: 2 / Серии: 1-9 из 9 [2019 HDTV 1080i] bober100 Скачать
1 | 1
Наши сериалы [ 5.65 GB ] Годунов. Продолжение / Сезон: 2 / Серии: 1-9 из 9 [2019история SATRip-AVC] aleksan55 Скачать
1 | 0


Последний раз редактировалось: oleg8 (2019-03-30 14:20), всего редактировалось 4 раз(а)

28-11-2019 20:33  

Отключить всю рекламу на сайте

    Дорогой пользователь! Огромная просьба, поблагодарите релизера, оцените раздачу и оставьте свои комментарий, если Вы скачали Годунов.Продолжение Сезон: 2 через торрент бесплатно! Внесите свою лепту в развитие PiratBit!
    Комментировать посты могут только пользователи прошедшие не сложную регистрацию
    Показать сообщения:    

    Годунов.Продолжение Сезон: 2 через торрент
    Скачать бесплатно Годунов.Продолжение Сезон: 2
    Годунов.Продолжение Сезон: 2 скачать торрент
    Годунов.Продолжение Сезон: 2 смотреть онлайн
    Cкачать фильм Годунов.Продолжение Сезон: 2 бесплатно
    Годунов.Продолжение Сезон: 2 скачать торрент в хорошем качестве
    Годунов.Продолжение Сезон: 2 смотреть онлайн бесплатно в хорошем качестве


    Вы не можете начинать темы
    Вы не можете отвечать на сообщения
    Вы не можете редактировать свои сообщения
    Вы не можете удалять свои сообщения
    Вы не можете голосовать в опросах
    Вы не можете прикреплять файлы к сообщениям
    Вы можете скачивать файлы