2 сезон

iTunes

MVO

1

2 сезон

iTunes

iTunes

1 сезон

RePack

30

Ultimate

ВАЖНО

ИГРА 18+

pack

RePack

MK11
pack

Легкие деньги

RePack

jed

RePack

fifa19

RePack

RDR2

RePack

NEED FOR SPEED™ PAYBACK

4 сезон

9 сезон

Бесстыжие 9 сезон

Все сериалы

все сериалы на PB.wtf

RePack

FAR CRY 5

Anonymous, добрый вечер, мы не успеваем собрать деньги на оплату серверов за декабрь и январь, помогите нам пожалуйста в это трудное время. В качестве благодарности мы отключим Вам всю рекламу на сайте (укажите свой ник в строку Ваше имя)!

×
  
Magnet ссылка

Репродукция / Replicas (Джеффри Начманофф) [2018, фантастика, триллер, BDRip 720p, 60 fps] Дубляж - [iTunes] pb.wtf

Репродукция через торрент pb.wtf

Раздают: 1 [ 0 KB/s ]
Размер: 8.91 GB | Добавлен: 1 год 9 мес. назад | Торрент скачан:194 раза
Скачать  

27-03-2019 03:04 Репродукция Скачать торрент  

Репродукция / Replicas««Он сделал это»»

Год выпуска: 2018
Страна: США
Жанр: фантастика, триллер
Продолжительность: 01:42:52
Перевод: Дублированный | iTunes
Субтитры: Отсутствуют
Режиссер: Джеффри Начманофф
В ролях:

Киану Ривз (Will Foster), Элис Ив (Mona), Эмили Элин Линд (Sophie), Эмджей Энтони (Matt Foster), Джон Ортис (Jones), Томас Миддлдитч (Ed), Эмбер Таунсенд (Lab Tech), Няша Хатенди (Scott), Ария Лайрик Либу (Zoe Foster), Эмбер Ривера (Margaret), Саншайн Логроньо (Hector), Эвелин Дин-Олмстед (Lab Tech)
Описание:
Талантливый учёный-биолог теряет в автокатастрофе свою семью. Одержимый желанием вернуть к жизни жену и детей, он преступает законы научной этики и самой природы.
Рейтинг:

MPAA: PG-13 - Детям до 13 лет просмотр не желателен
Качество: BDRip 720p | 60 fps
Формат: MKV
Видео: AVC | 1280 x 536 | 60.000 fps | 12.0 Мбит/сек
Аудио: AC-3 | 5.1 | 48 kHz | 384 Кбит/сек | 16 bit | Дубляж (iTunes) | RUS |
Навигация по главам: есть
General
Unique ID : 613266457034883681399307760574576666 (0x761C5EEB445711901D5E541DFEB81A)
Complete name : D:\2018 Репродукция BDRip 720р 60 fps.mkv
Format : Matroska
Format version : Version 4 / Version 2
File size : 8.91 GiB
Duration : 1h 42mn
Overall bit rate : 12.4 Mbps
Movie name : Репродукция / Replicas (2018)
Encoded date : UTC 2019-01-28 21:44:06
Writing application : mkvmerge v22.0.0 ('At The End Of The World') 64-bit
Writing library : libebml v1.3.5 + libmatroska v1.4.8
DURATION : 01:42:52.512000000
NUMBER_OF_FRAMES : 192891
NUMBER_OF_BYTES : 296280576
_STATISTICS_WRITING_APP : mkvmerge v22.0.0 ('At The End Of The World') 64-bit
_STATISTICS_WRITING_DATE_UTC : 2019-01-28 21:44:06
_STATISTICS_TAGS : BPS DURATION NUMBER_OF_FRAMES NUMBER_OF_BYTES
Video #1
ID : 1
Format : AVC
Format/Info : Advanced Video Codec
Format profile : High@L4.1
Format settings, CABAC : Yes
Format settings, ReFrames : 8 frames
Codec ID : V_MPEG4/ISO/AVC
Duration : 1h 42mn
Bit rate : 12.0 Mbps
Width : 1 280 pixels
Height : 536 pixels
Display aspect ratio : 2.40:1
Frame rate : 60.000 fps
Color space : YUV
Chroma subsampling : 4:2:0
Bit depth : 8 bits
Scan type : Progressive
Bits/(Pixel*Frame) : 0.292
Stream size : 8.45 GiB (95%)
Writing library : x264 core 146 r2538 121396c
Encoding settings : cabac=1 / ref=8 / deblock=1:-3:-3 / analyse=0x3:0x113 / me=umh / subme=9 / psy=1 / psy_rd=1.00:0.25 / mixed_ref=1 / me_range=32 / chroma_me=1 / trellis=2 / 8x8dct=1 / cqm=0 / deadzone=6,6 / fast_pskip=1 / chroma_qp_offset=-4 / threads=12 / lookahead_threads=2 / sliced_threads=0 / nr=0 / decimate=0 / interlaced=0 / bluray_compat=0 / constrained_intra=0 / bframes=3 / b_pyramid=2 / b_adapt=2 / b_bias=0 / direct=3 / weightb=1 / open_gop=0 / weightp=2 / keyint=600 / keyint_min=60 / scenecut=40 / intra_refresh=0 / rc_lookahead=60 / rc=2pass / mbtree=1 / bitrate=12000 / ratetol=1.0 / qcomp=0.80 / qpmin=0 / qpmax=69 / qpstep=4 / cplxblur=20.0 / qblur=0.5 / vbv_maxrate=50000 / vbv_bufsize=50000 / nal_hrd=none / filler=0 / ip_ratio=1.10 / aq=1:0.50
Language : English
Default : Yes
Forced : No
DURATION : 01:42:52.450000000
NUMBER_OF_FRAMES : 370347
NUMBER_OF_BYTES : 9264708238
_STATISTICS_WRITING_APP : mkvmerge v22.0.0 ('At The End Of The World') 64-bit
_STATISTICS_WRITING_DATE_UTC : 2019-01-28 21:44:06
_STATISTICS_TAGS : BPS DURATION NUMBER_OF_FRAMES NUMBER_OF_BYTES
Audio #2
ID : 2
Format : AC-3
Format/Info : Audio Coding 3
Mode extension : CM (complete main)
Format settings, Endianness : Big
Codec ID : A_AC3
Duration : 1h 42mn
Bit rate mode : Constant
Bit rate : 384 Kbps
Channel(s) : 6 channels
Channel positions : Front: L C R, Side: L R, LFE
Sampling rate : 48.0 KHz
Bit depth : 16 bits
Compression mode : Lossy
Stream size : 283 MiB (3%)
Title : iTunes
Language : Russian
Default : Yes
Forced : Yes
Menu
00:00:00.000 : en:Глава 1
00:07:19.080 : en:Глава 2
00:11:50.240 : en:Глава 3
00:17:00.960 : en:Глава 4
00:22:13.599 : en:Глава 5
00:28:38.158 : en:Глава 6
00:33:42.398 : en:Глава 7
00:40:11.717 : en:Глава 8
00:44:39.396 : en:Глава 9
00:50:00.515 : en:Глава 10
00:55:48.355 : en:Глава 11
01:01:01.994 : en:Глава 12
01:07:02.673 : en:Глава 13
01:12:15.153 : en:Глава 14
01:20:08.833 : en:Глава 15
01:26:17.272 : en:Глава 16
скриншот   скриншот   скриншот   скриншот  
pb.wtf



Скачать Репродукция через торрент https://d.radikal.ru/d06/1903/8b/3f1a9447ae73.png Скачать фильм Репродукция через торрент бесплантно в хорошем качестве Описание: Талантливый учёный-биолог теряет в автокатастрофе свою семью. Одержимый желанием вернуть к жизни жену и детей, он преступает ... 9.7 10 7
Торрент: Зарегистрирован [2019-03-27 03:04] · скачан: 194 раз
Статус: √ проверено
Размер: 8.91 GB
Как cкачать? Как скачать Репродукция через торрент | UTorrent

% Раздел Тема Автор DL S | L
Фильмы (Blu-ray, BD-Remux, HDDVD) [ 27.88 GB ] Репродукция / Replicas [2018 BD Remux ] Бумер Скачать
1 | 0
Фильмы 2018 [DVDrip, WEB-DLRip, HDrip] (DUB, MVO) [ 1.41 GB ] Репродукция / Replicas [2018 BDRip] bober100 Скачать
1 | 0
Фильмы [HD 720p, 1080p] (Хороший звук DUB, MVO) [ 11 GB ] Репродукция / Replicas [2018 BDRip 1080p] +MVO [HDRezka Studio] bober100 Скачать
1 | 0
Ultra HD (UHD: 2K, 4K, 8K) — видео сверхвысокой чёткости [ 14.09 GB ] Репродукция / Replicas [2018 UHD WEBRip 2160p] + MVO [HDRezka Studio] sheker187 Скачать
1 | 0
Фильмы [HD 720p, 1080p] (Хороший звук DUB, MVO) [ 10.86 GB ] Репродукция / Replicas [2018 BDRip 1080p] - sheker187 Скачать
1 | 0

28-11-2019 20:33  

Отключить всю рекламу на сайте

28-06-2020 14:51 Репродукция Скачать торрент  

Спасибо за релиз в 60 fps!
Меня терзают смутные сомнения что лучше 720 + 60fps вес 8,90гб или 1080 24 fps вес 4,34гб BDRip-HEVC смотрю их они одинаковые, только вес разный... конечно переработка свежая 1080, но всё же...
Зачем такой вес? не понимаю. pb.wtf



    Дорогой пользователь! Огромная просьба, поблагодарите релизера, оцените раздачу и оставьте свои комментарий, если Вы скачали Репродукция через торрент бесплатно! Внесите свою лепту в развитие PiratBit!
    Комментировать посты могут только пользователи прошедшие не сложную регистрацию
    Показать сообщения:    

    Репродукция через торрент
    Скачать бесплатно Репродукция
    Репродукция скачать торрент
    Репродукция смотреть онлайн
    Cкачать фильм Репродукция бесплатно
    Репродукция скачать торрент в хорошем качестве
    Репродукция смотреть онлайн бесплатно в хорошем качестве


    Вы не можете начинать темы
    Вы не можете отвечать на сообщения
    Вы не можете редактировать свои сообщения
    Вы не можете удалять свои сообщения
    Вы не можете голосовать в опросах
    Вы не можете прикреплять файлы к сообщениям
    Вы можете скачивать файлы