Ссылка на приватное зеркало всего за 1$. Внимание количество ограничено!!!

iTunes

1+1

iTunes

мы

WEB-DL

1

iTunes

Чернобыль

iTunes

Ральф против интернета

Лицензия

ПШазам

Лицензия

Оно 2

Лицензия

30
pack

Вам бонус

ВАЖНО

!!Акция!!

Alien_RageХит недели

RePack

Resident Evil 21

ИГРА 18+

pack

RePack

jed

!!Акция!!

Alien_Rage

RePack

fifa19

RePack

Assassins Creed: Odyssey

RePack

NEED FOR SPEED™ PAYBACK

3 сезон

9 сезон

Бесстыжие 9 сезон

Все сериалы

все сериалы на PB.wtf

RePack

FAR CRY 5
Ребята, катастрофически не хватает 1900р. для оплаты серверов за Октябрь (всвязи с блокировками трафик упал в 3 раза), 1-2р., выручайте.
  

Демонолог / Экзорцист / The Demonologist (Дж.М. Стелли) [2018, ужасы, WEB-DLRip-AVC] MVO [HDRezka Studio] - ExKinoRay pb.wtf

Демонолог через торрент pb.wtf

Раздают: 1 [ 6 KB/s ]
Размер: 1.45 GB | Добавлен: 8 мес. назад | Торрент скачан:63 раза
Скачать  

27-03-2019 03:18 Демонолог Скачать торрент  

Информация о фильме
Название: Экзорцист / Демонолог
Оригинальное название: The Demonologist
Год выхода: 2018
Жанр: Ужасы
Режиссер: Дж.М. Стелли
В ролях: Брайан Краузе, Джаред Банкенс, Лара Грайс, Томас Мерфи, Кейт Туманова, Джефф Пирсон, Ронда Дентс, Манон Пейдж, Скотт Аллен Перри, Киган Мэйси

Описание: Дэмиан Сериф – полицейский детектив, преследуемый кошмарами из прошлого и непонятными ему видениями. Когда герой начинает расследование ряда жестоких ритуальных убийств, он обнаруживает, что все они связаны с загадочным культом, члены которого поклоняются Четырем всадникам и планируют вызвать их на Землю, чтобы начать апокалипсис. Вскоре Дэмиан понимает, что с этим делом его связывает гораздо больше, чем он мог предположить. Поэтому теперь ему придется вступить в борьбу с культом и встретиться со своей истинной судьбой…

rating

Страна: США, CS West Productions, Thriller Films, Tip-Top Productions
Продолжительность: 01:40:05
Перевод: Профессиональный (многоголосый, закадровый) | HDRezka Studio
Субтитры: Английские

БЕЗ КАКОЙ-ЛИБО РЕКЛАМЫ!

Формат: MKV
Качество: WEB-DLRip-AVC
Видео: MPEG-4 AVC, 720x404 (16:9), 23.976 fps, 1877 Kbps, 0.269 bit/pixel
Аудио : 48 kHz, AC3, 2.0, 192 Kbps | MVO | RUS |
General
Unique ID : 225815676269602379576245710197847907113 (0xA9E2846CB8DDE44882C8CF8C1E4A5B29)
Complete name : D:\The.Demonologist.2018.MVO.WEB-DL.AVC.ExKinoRay.mkv
Format : Matroska
Format version : Version 2
File size : 1.45 GiB
Duration : 1 h 40 min
Overall bit rate : 2 070 kb/s
Movie name : The Demonologist 2018 from ExKinoRay
Encoded date : UTC 2019-03-26 19:02:01
Writing application : mkvmerge v5.6.0 ('Kenya Kane') built on May 27 2012 16:44:04
Writing library : libebml v1.2.3 + libmatroska v1.3.0

Video
ID : 1
Format : AVC
Format/Info : Advanced Video Codec
Format profile : High@L4.1
Format settings, CABAC : Yes
Format settings, ReFrames : 11 frames
Codec ID : V_MPEG4/ISO/AVC
Duration : 1 h 40 min
Bit rate : 1 877 kb/s
Width : 720 pixels
Height : 404 pixels
Display aspect ratio : 16:9
Frame rate mode : Constant
Frame rate : 23.976 (24000/1001) FPS
Original frame rate : 23.976 (23976/1000) FPS
Color space : YUV
Chroma subsampling : 4:2:0
Bit depth : 8 bits
Scan type : Progressive
Bits/(Pixel*Frame) : 0.269
Stream size : 1.28 GiB (89%)
Title : Enigma
Writing library : x264 core 152 r2851 ba24899
Encoding settings : cabac=1 / ref=11 / deblock=1:-2:-2 / analyse=0x3:0x113 / me=umh / subme=10 / psy=1 / psy_rd=1.05:0.08 / mixed_ref=1 / me_range=32 / chroma_me=1 / trellis=2 / 8x8dct=1 / cqm=0 / deadzone=21,11 / fast_pskip=0 / chroma_qp_offset=-3 / threads=12 / lookahead_threads=2 / sliced_threads=0 / nr=0 / decimate=0 / interlaced=0 / bluray_compat=0 / constrained_intra=0 / bframes=9 / b_pyramid=2 / b_adapt=2 / b_bias=0 / direct=3 / weightb=1 / open_gop=0 / weightp=2 / keyint=240 / keyint_min=23 / scenecut=40 / intra_refresh=0 / rc_lookahead=40 / rc=2pass / mbtree=1 / bitrate=1877 / ratetol=1.0 / qcomp=0.60 / qpmin=0 / qpmax=51 / qpstep=4 / cplxblur=20.0 / qblur=0.5 / ip_ratio=1.30 / aq=2:0.90
Default : Yes
Forced : No
Color range : Limited
Color primaries : BT.709
Transfer characteristics : BT.709
Matrix coefficients : BT.709

Audio
ID : 2
Format : AC-3
Format/Info : Audio Coding 3
Mode extension : CM (complete main)
Format settings, Endianness : Big
Codec ID : A_AC3
Duration : 1 h 40 min
Bit rate mode : Constant
Bit rate : 192 kb/s
Channel(s) : 2 channels
Channel positions : Front: L R
Sampling rate : 48.0 kHz
Frame rate : 31.250 FPS (1536 spf)
Compression mode : Lossy
Stream size : 137 MiB (9%)
Title : MVO (HDRezka Studio)
Language : Russian
Default : Yes
Forced : No

Text
ID : 3
Format : UTF-8
Codec ID : S_TEXT/UTF8
Codec ID/Info : UTF-8 Plain Text
Language : English
Default : No
Forced : No

Menu
00:00:00.000 : en:1
00:08:20.208 : en:2
00:21:51.018 : en:3
00:26:13.613 : en:4
00:42:41.726 : en:5
00:54:33.104 : en:6
01:06:45.044 : en:7
01:19:49.495 : en:8
01:35:40.737 : en:9
Релиз от:

Автор релиза: pb.wtf



Скачать Демонолог через торрент https://b.radikal.ru/b42/1901/b4/9de223464457.jpg Скачать фильм Демонолог через торрент бесплантно в хорошем качестве Описание: Дэмиан Сериф – полицейский детектив, преследуемый кошмарами из прошлого и непонятными ему видениями. Когда герой начинает ... 10 10 3
Info! Золотая раздача, скачанное не засчитывается.
Торрент: Зарегистрирован [2019-03-27 03:18] · скачан: 63 раз
Статус: T временная
Размер: 1.45 GB
Как cкачать? Как скачать Демонолог через торрент | qTorrent

% Раздел Тема Автор DL S | L
T Фильмы (WEB-DL 720p, 1080p) [ 4.1 GB ] Демонолог / Экзорцист / The Demonologist [2018 WEB-DL 1080p] MVO [HDRezka Studio] - ExKinoRay Enigma2010 Скачать
1 | 0
T Фильмы 2018 [DVDrip, WEB-DLRip, HDrip] (DUB, MVO) [ 1.45 GB ] Демонолог / Экзорцист / The Demonologist [2018 WEB-DLRip] MVO [HDRezka Studio] - ExKinoRay Enigma2010 Скачать
1 | 0

28-11-2019 20:33  

Отключить всю рекламу на сайте

28-03-2019 12:37 Демонолог Скачать торрент  

4 скрин зачет)))pb.wtf



    Дорогой пользователь! Огромная просьба, поблагодарите релизера, оцените раздачу и оставьте свои комментарий, если Вы скачали Демонолог через торрент бесплатно! Внесите свою лепту в развитие PiratBit!
    Комментировать посты могут только пользователи прошедшие не сложную регистрацию
    Показать сообщения:    

    Демонолог через торрент
    Скачать бесплатно Демонолог
    Демонолог скачать торрент
    Демонолог смотреть онлайн
    Cкачать фильм Демонолог бесплатно
    Демонолог скачать торрент в хорошем качестве
    Демонолог смотреть онлайн бесплатно в хорошем качестве


    Вы не можете начинать темы
    Вы не можете отвечать на сообщения
    Вы не можете редактировать свои сообщения
    Вы не можете удалять свои сообщения
    Вы не можете голосовать в опросах
    Вы не можете прикреплять файлы к сообщениям
    Вы можете скачивать файлы