Ссылка на приватное зеркало нашего сайта всего за 1$. Внимание количество ограничено!!!

2 сезон

iTunes

1 сезон

1

2 сезон

2 сезон

iTunes

1 сезон

RePack

30

Новинка

ВАЖНО

ИГРА 18+

pack

RePack

MK11
pack

Забери бонус

RePack

jed

!!Акция!!

Alien_Rage

RePack

fifa19

RePack

Assassins Creed: Odyssey

RePack

NEED FOR SPEED™ PAYBACK

4 сезон

9 сезон

Бесстыжие 9 сезон

Все сериалы

все сериалы на PB.wtf

RePack

FAR CRY 5
  

Миллиарды / Billions / Сезон: 4 / Серии: 1-12 из 12 (Колин Бакси, Анна Боден, Райан Флек) [2019, драма, WEBRip 1080p] [MVO] (NewStudio) pb.wtf

Миллиарды через торрент pb.wtf

Размер: 41.4 GB | Добавлен: 1 год 4 мес. назад | Торрент скачан:19 раз
Скачать  

27-03-2019 08:46 Миллиарды Скачать торрент  

Миллиарды / Billions
Год выпуска: 2019
Страна: США
Жанр: драма
Продолжительность: ~00:57:00
Перевод: Профессиональный (многоголосый закадровый) | NewStudio
Режиссёр: Колин Бакси, Анна Боден, Райан Флек
В ролях: Дэмиэн Льюис, Пол Джаматти, Мэгги Сифф, Малин Акерман, Тоби Леонард Мур, Дэвид Костабайл, Дэниэл К. Исаак, Фрэнк Хартс и др.
Описание: В мире власти и больших денег, в самом сердце Нью-Йорка, вовсю идет противостояние амбициозного финансиста с Уолл-стрит Бобби Аксельрода и принципиального федерального прокурора Чака Родса.

скриншот  
Качество: WEBRip 1080p
Контейнер: MKV
Видео: 1920x1080, 23.976 fps, MPEG-4 AVC, ~7188 kbps, 0.145 bits/pixel
Аудио Rus: 48 kHz, AC3, 3/2 (L,C,R,l,r) + LFE ch, 384 kbps | NewStudio
Аудио Eng: 48 kHz, E-AC3, 3/2 (L,C,R,l,r) + LFE ch, 640.00 kbps
Субтитры: Русские (Full |Amedia|, Forced), Английские (SDH)
General
Unique ID : 202314229307993041115883485612852152444 (0x98344DA122CB635887225B17B8C4887C)
Complete name : I:\Billions.S04E01.Chucky.Rhoadess.Greatest.Game.AMZN.WEBRip.1080p.NewStudio.mkv
Format : Matroska
Format version : Version 4 / Version 2
File size : 3.12 GiB
Duration : 54 min 27 s
Overall bit rate : 8 216 kb/s
Encoded date : UTC 2019-03-26 16:50:01
Writing application : mkvmerge v8.3.0 ('Over the Horizon') 32bit
Writing library : libebml v1.3.1 + libmatroska v1.4.2
Attachments : poster.png

Video
ID : 1
Format : AVC
Format/Info : Advanced Video Codec
Format profile : High@L4
Format settings, CABAC : Yes
Format settings, ReFrames : 4 frames
Codec ID : V_MPEG4/ISO/AVC
Duration : 54 min 27 s
Bit rate mode : Constant
Bit rate : 7 188 kb/s
Nominal bit rate : 10 000 kb/s
Width : 1 920 pixels
Height : 1 080 pixels
Display aspect ratio : 16:9
Frame rate mode : Constant
Frame rate : 23.976 (24000/1001) FPS
Color space : YUV
Chroma subsampling : 4:2:0
Bit depth : 8 bits
Scan type : Progressive
Bits/(Pixel*Frame) : 0.145
Stream size : 2.73 GiB (87%)
Language : English
Default : Yes
Forced : No
Color range : Limited
Color primaries : BT.709
Transfer characteristics : BT.709
Matrix coefficients : BT.709

Audio #1
ID : 2
Format : AC-3
Format/Info : Audio Coding 3
Format settings, Endianness : Big
Codec ID : A_AC3
Duration : 54 min 27 s
Bit rate mode : Constant
Bit rate : 384 kb/s
Channel(s) : 6 channels
Channel positions : Front: L C R, Side: L R, LFE
Sampling rate : 48.0 kHz
Frame rate : 31.250 FPS (1536 spf)
Bit depth : 16 bits
Compression mode : Lossy
Stream size : 150 MiB (5%)
Title : NewStudio
Language : Russian
Service kind : Complete Main
Default : Yes
Forced : No

Audio #2
ID : 3
Format : E-AC-3
Format/Info : Enhanced Audio Coding 3
Format settings, Endianness : Big
Codec ID : A_EAC3
Duration : 54 min 27 s
Bit rate mode : Constant
Bit rate : 640 kb/s
Channel(s) : 6 channels
Channel positions : Front: L C R, Side: L R, LFE
Sampling rate : 48.0 kHz
Frame rate : 187.500 FPS (256 spf)
Compression mode : Lossy
Delay relative to video : 18 ms
Stream size : 249 MiB (8%)
Language : English
Service kind : Complete Main
Default : No
Forced : No

Text #1
ID : 4
Format : ASS
Codec ID : S_TEXT/ASS
Codec ID/Info : Advanced Sub Station Alpha
Duration : 7 s 120 ms
Bit rate : 265 b/s
Count of elements : 3
Compression mode : Lossless
Stream size : 236 Bytes (0%)
Title : Forced
Language : Russian
Default : Yes
Forced : Yes

Text #2
ID : 5
Format : UTF-8
Codec ID : S_TEXT/UTF8
Codec ID/Info : UTF-8 Plain Text
Duration : 52 min 5 s
Bit rate : 140 b/s
Count of elements : 941
Stream size : 53.6 KiB (0%)
Title : Full
Language : Russian
Default : No
Forced : No

Text #3
ID : 6
Format : UTF-8
Codec ID : S_TEXT/UTF8
Codec ID/Info : UTF-8 Plain Text
Duration : 53 min 0 s
Bit rate : 102 b/s
Count of elements : 1279
Stream size : 39.9 KiB (0%)
Title : SDH
Language : English
Default : No
Forced : No

скриншот  скриншот  скриншот  

Внимание! Раздача ведётся путём добавления новых серий; при каждом добавлении создаётся новый торрент. Чтобы начать докачку новой серии, пользователям необходимо сделать следующее:
(1) остановить скачивание,
(2) удалить старый торрент у себя из клиента (старые серии удалять не надо),
(3) скачать новый торрент и запустить его у себя в клиенте вместо старого, при этом указать клиенту путь в старую папку куда и должно происходить скачивание новых серий.

Ваш клиент при этом должен произвести хеширование (проверку) старой папки (если не производит сам - помогите ему сделать это), и будет докачивать только те серии которых у вас ещё нет. Старые серии при этом не удаляются, а продолжают раздаваться!

Eсли вы уже удалили старые серии, то предотвратить повторную закачку старых серий можно, отжав галочку в соответствующих местах при запуске нового торрента. По возможности, желательно не удалять старые серии как можно дольше чтобы релизёр не столько продолжал раздавать старые серии, а смог сконцентрироваться на новых.
pb.wtf



Скачать Миллиарды через торрент https://i110.fastpic.ru/big/2019/0326/08/5e7ab1d6bdedfbd76ca032a809357d08.jpg Скачать фильм Миллиарды через торрент бесплантно в хорошем качестве Описание: В мире власти и больших денег, в самом сердце Нью-Йорка, вовсю идет противостояние амбициозного финансиста с Уолл-стрит Бобби ... 1 10 1
Торрент: Зарегистрирован [2019-07-26 14:59] · скачан: 19 раз
Статус: √ проверено
Размер: 41.4 GB
Как cкачать? Как скачать Миллиарды через торрент | qTorrent

% Раздел Тема Автор DL S | L
Зарубежные сериалы [ 20.11 GB ] Миллиарды / Billions / Сезон: 4 / Серии: 1-12 из 12 [2019 WEB-DL 720p] MVO [LostFilm] bober100 Скачать
2 | 0
Зарубежные сериалы [ 7.14 GB ] Миллиарды / Billions / Сезон: 4 / Серии: 1-12 из 12 [2019 WEBRip] [MVO] killermax2013 Скачать
2 | 0
Зарубежные сериалы [ 40.52 GB ] Миллиарды / Billions / Сезон: 4 / Серии: 1-12 из 12 [2019 WEB-DL 1080p] MVO [Jaskier] bober100 Скачать
1 | 0
Зарубежные сериалы [ 8.46 GB ] Миллиарды / Billions / Сезон: 4 / Серии: 1-12 из 12 [2019 WEB-DLRip] MVO [Jaskier] bober100 Скачать
1 | 0

28-11-2019 20:33  

Отключить всю рекламу на сайте

    Дорогой пользователь! Огромная просьба, поблагодарите релизера, оцените раздачу и оставьте свои комментарий, если Вы скачали Миллиарды через торрент бесплатно! Внесите свою лепту в развитие PiratBit!
    Комментировать посты могут только пользователи прошедшие не сложную регистрацию
    Показать сообщения:    

    Миллиарды через торрент
    Скачать бесплатно Миллиарды
    Миллиарды скачать торрент
    Миллиарды смотреть онлайн
    Cкачать фильм Миллиарды бесплатно
    Миллиарды скачать торрент в хорошем качестве
    Миллиарды смотреть онлайн бесплатно в хорошем качестве


    Вы не можете начинать темы
    Вы не можете отвечать на сообщения
    Вы не можете редактировать свои сообщения
    Вы не можете удалять свои сообщения
    Вы не можете голосовать в опросах
    Вы не можете прикреплять файлы к сообщениям
    Вы можете скачивать файлы