новый адрес пиратбит piratbit
Мега распродажа FORZA HORIZON 4 ULTIMATE+ВСЕ DLC+ОНЛАЙН всего за 499р. 349 руб. (супер цена). Внимание количество ограничено!!!

iTunes

1+1

iTunes

мы

iTunes

1

iTunes

Чернобыль

iTunes

Ральф против интернета

Лицензия

ПШазам

Лицензия

Игра престолов

Лицензия

30
pack

ВАЖНО

!!Акция!!

Alien_RageХит недели

RePack

Resident Evil 21

ИГРА 18+

pack

RePack

Metro:Exodus

!!Акция!!

Alien_Rage

RePack

fifa19

RePack

Assassins Creed: Odyssey

RePack

NEED FOR SPEED™ PAYBACK

3 сезон

9 сезон

Бесстыжие 9 сезон

Все сериалы

все сериалы на PB.wtf

RePack

FAR CRY 5
Ребята, катастрофически не хватает 1900р. для оплаты серверов за Октябрь (всвязи с блокировками трафик упал в 3 раза), 1-2р., выручайте.
  

Вступление (Игорь Таланкин) [1963, СССР, драма, DVDRip от AVP Studio] pb.wtf

Вступление через торрент pb.wtf

Размер: 1.09 GB | Добавлен: 7 мес. назад | Торрент скачан:2 раза
Скачать  

27-03-2019 08:50 Вступление Скачать торрент  

Вступление
Страна: СССР
Производство: Мосфильм

Жанр: драма
Год выпуска: 1963
Продолжительность: 01:34:59

Перевод: Не требуется
Cубтитры: нет
Оригинальная аудиодорожка: русский

Режиссер: Игорь Таланкин

В ролях:
Борис Токарев, Нина Ургант, Юрий Волков, Николай Бурляев, Наталия Богунова, Лида Волкова, Галина Вялых, Любовь Соколова, Любовь Малиновская, Валерий Носик, Виктор Авдюшко, Станислав Чекан, Наталья Целигорова, Аркадий Трусов, Елена Коровина, Людмила Гаврилова...
Об актёрах подробней

Описание:
По мотивам рассказов Веры Пановой "Валя" и "Володя".
Когда началась война, Володя уехал с матерью из Ленинграда, а отец остался в городе со своей новой семьей. Война окончилась, Володя вырос и уехал в город, потому что там был завод - и теперь он мог помогать матери. Но мать в его отсутствии сошлась с мужчиной, который ее бросил, как только узнал, что она беременна. Вскоре у Володи появилась сестренка. Когда заболела мать, юноша решил попросить помощи у отца.

Источник: DVD5 R5
Качество видео: DVDRip
Формат видео: AVI

Видео: 688х512 (4:3), 25,000 fps, XviD ~ 1440 kbps avg, 0.164 bit/pixel
Аудио: 48 kHz, Dolby Digital AC3 2.0, 192 kbps

Раздача от:
Общее
Полное имя : Vstuplenie.1963.DVDRip_[New-team]_by_AVP_Studio.avi
Формат : AVI
Формат/Информация : Audio Video Interleave
Размер файла : 1,09 Гбайт
Продолжительность : 1 ч. 34 м.
Общий поток : 1642 Кбит/сек
Программа кодирования : VirtualDubMod 1.5.10.3 | www.virtualdub-fr.org || (build 2550/release)
Библиотека кодирования : VirtualDubMod build 2550/release

Видео
Идентификатор : 0
Формат : MPEG-4 Visual
Профиль формата : Advanced Simple@L5
Настройки формата : BVOP1 / Custom Matrix
Параметр BVOP формата : 1
Параметр QPel формата : Нет
Параметр GMC формата : Без точки перехода
Параметр матрицы формата : Выборочная
Идентификатор кодека : XVID
Идентификатор кодека/Подсказка : XviD
Продолжительность : 1 ч. 34 м.
Битрейт : 1440 Кбит/сек
Ширина : 688 пикселей
Высота : 512 пикселей
Соотношение сторон : 4:3
Частота кадров : 25,000 кадров/сек
Цветовое пространство : YUV
Субдискретизация насыщенности : 4:2:0
Битовая глубина : 8 бит
Тип развёртки : Прогрессивная
Метод сжатия : С потерями
Бит/(Пиксели*Кадры) : 0.164
Размер потока : 978 Мбайт (88%)
Библиотека кодирования : XviD 73

Аудио
Идентификатор : 1
Формат : AC-3
Формат/Информация : Audio Coding 3
Коммерческое название : Dolby Digital
Идентификатор кодека : 2000
Продолжительность : 1 ч. 34 м.
Вид битрейта : Постоянный
Битрейт : 192 Кбит/сек
Каналы : 2 канала
Channel layout : L R
Частота : 48,0 КГц
Частота кадров : 31,250 кадров/сек (1536 SPF)
Битовая глубина : 16 бит
Метод сжатия : С потерями
Размер потока : 130 Мбайт (12%)
Выравнивание : Разделение по промежуткам
Продолжительность промежутка : 40 мс. (1,00 видеокадр)
Время предзагрузки промежутка : 500 мс
pb.wtf



Скачать Вступление через торрент http://picplus.ru/img/1903/27/b9d88164.png Скачать фильм Вступление через торрент бесплантно в хорошем качестве Описание:По мотивам рассказов Веры Пановой "Валя" и "Володя".Когда началась война, Володя уехал с матерью из Ленинграда, а отец остался в ... 10 10 1
Торрент: Зарегистрирован [2019-03-27 08:50] · скачан: 2 раз
Статус: √ проверено
Размер: 1.09 GB
Как cкачать? Как скачать Вступление через торрент | qTorrent

% Раздел Тема Автор DL S | L
Кино СССР [ 1.09 GB ] Вступление [1963 СССР DVDRip-AVC от AVP Studio] AVP Studio Скачать
1 | 0
Документальные фильмы и телепередачи [ 74 MB ] Вступление в ВТО как вторая продажа Аляски [2012 документальный WEBRip Оригинал] metanoia Скачать
1 | 0
Фильмы до 2000 г. [ 1.88 GB ] Космическая одиссея 2010 / 2010: The Year We Make Contact [1984 BDRip-AVC] L_E_X Скачать
2 | 0


>> Регистрируемся здесь <<






Отзывы и комментарии о схеме читаем и пишем здесь: ---> Отзывы и комментарии о схеме

Новые благодарочки в телеграм довольных пользователей:
скриншот   скриншот   скриншот   скриншот   скриншот
    Дорогой пользователь! Огромная просьба, поблагодарите релизера, оцените раздачу и оставьте свои комментарий, если Вы скачали Вступление через торрент бесплатно! Внесите свою лепту в развитие PiratBit!
    Комментировать посты могут только пользователи прошедшие не сложную регистрацию
    Показать сообщения:    

    Вступление через торрент
    Скачать бесплатно Вступление
    Вступление скачать торрент
    Вступление смотреть онлайн
    Cкачать фильм Вступление бесплатно
    Вступление скачать торрент в хорошем качестве
    Вступление смотреть онлайн бесплатно в хорошем качестве


    Вы не можете начинать темы
    Вы не можете отвечать на сообщения
    Вы не можете редактировать свои сообщения
    Вы не можете удалять свои сообщения
    Вы не можете голосовать в опросах
    Вы не можете прикреплять файлы к сообщениям
    Вы можете скачивать файлы