Ссылка на приватное зеркало всего за 1$. Внимание количество ограничено!!!

iTunes

1+1

iTunes

мы

WEB-DL

1

iTunes

Чернобыль

iTunes

Ральф против интернета

Лицензия

ПШазам

Лицензия

Оно 2

Лицензия

30
pack

Вам бонус

ВАЖНО

!!Акция!!

Alien_RageХит недели

RePack

Resident Evil 21

ИГРА 18+

pack

RePack

jed

!!Акция!!

Alien_Rage

RePack

fifa19

RePack

Assassins Creed: Odyssey

RePack

NEED FOR SPEED™ PAYBACK

3 сезон

9 сезон

Бесстыжие 9 сезон

Все сериалы

все сериалы на PB.wtf

RePack

FAR CRY 5
Ребята, катастрофически не хватает 1900р. для оплаты серверов за Октябрь (всвязи с блокировками трафик упал в 3 раза), 1-2р., выручайте.
  

Вступление (Игорь Таланкин) [1963, СССР, драма, DVDRip-AVC от AVP Studio] pb.wtf

Вступление через торрент pb.wtf

Размер: 1.09 GB | Добавлен: 8 мес. назад | Торрент скачан:12 раз
Скачать  

27-03-2019 08:51 Вступление Скачать торрент  

Вступление
Страна: СССР
Производство: Мосфильм

Жанр: драма
Год выпуска: 1963
Продолжительность: 01:34:59

Перевод: Не требуется
Cубтитры: нет
Оригинальная аудиодорожка: русский

Режиссер: Игорь Таланкин

В ролях:
Борис Токарев, Нина Ургант, Юрий Волков, Николай Бурляев, Наталия Богунова, Лида Волкова, Галина Вялых, Любовь Соколова, Любовь Малиновская, Валерий Носик, Виктор Авдюшко, Станислав Чекан, Наталья Целигорова, Аркадий Трусов, Елена Коровина, Людмила Гаврилова...
Об актёрах подробней

Описание:
По мотивам рассказов Веры Пановой "Валя" и "Володя".
Когда началась война, Володя уехал с матерью из Ленинграда, а отец остался в городе со своей новой семьей. Война окончилась, Володя вырос и уехал в город, потому что там был завод - и теперь он мог помогать матери. Но мать в его отсутствии сошлась с мужчиной, который ее бросил, как только узнал, что она беременна. Вскоре у Володи появилась сестренка. Когда заболела мать, юноша решил попросить помощи у отца.

Источник: DVD5 R5
Качество видео: DVDRip-AVC
Формат видео: MKV

Видео: 696->737х554 (4:3), 25,000 fps, H264 ~ 1447 kbps avg, 0.150 bit/pixel
Аудио: 48 kHz, Dolby Digital AC3 2.0, 192 kbps

Раздача от:
Общее
Полное имя : Vstuplenie.1963.DVDRip-AVC_[New-team]_by_AVP_Studio.mkv
Формат : Matroska
Версия формата : Version 2
Размер файла : 1,09 Гбайт
Продолжительность : 1 ч. 34 м.
Общий поток : 1641 Кбит/сек
Дата кодирования : UTC 2019-03-22 22:09:51
Программа кодирования : mkvmerge v6.1.0 ('Old Devil') built on Mar 4 2013 09:10:42
Библиотека кодирования : libebml v1.3.0 + libmatroska v1.4.0

Видео
Идентификатор : 1
Формат : AVC
Формат/Информация : Advanced Video Codec
Профиль формата : High@L4.1
Настройки формата : CABAC / 10 Ref Frames
Параметр CABAC формата : Да
Параметр RefFrames формата : 10 кадров
Идентификатор кодека : V_MPEG4/ISO/AVC
Продолжительность : 1 ч. 34 м.
Битрейт : 1447 Кбит/сек
Ширина : 696 пикселей
Высота : 554 пикселя
Соотношение сторон : 4:3
Режим частоты кадров : Постоянный
Частота кадров : 25,000 кадров/сек
Цветовое пространство : YUV
Субдискретизация насыщенности : 4:2:0
Битовая глубина : 8 бит
Тип развёртки : Прогрессивная
Бит/(Пиксели*Кадры) : 0.150
Размер потока : 962 Мбайт (86%)
Библиотека кодирования : x264 core 157 r2935 545de2f
Настройки программы : cabac=1 / ref=10 / deblock=1:-2:-1 / analyse=0x3:0x113 / me=umh / subme=10 / psy=1 / psy_rd=1.00:0.00 / mixed_ref=1 / me_range=32 / chroma_me=1 / trellis=2 / 8x8dct=1 / cqm=0 / deadzone=21,11 / fast_pskip=1 / chroma_qp_offset=-2 / threads=6 / lookahead_threads=1 / sliced_threads=0 / nr=0 / decimate=0 / interlaced=0 / bluray_compat=0 / constrained_intra=0 / bframes=8 / b_pyramid=2 / b_adapt=2 / b_bias=0 / direct=3 / weightb=1 / open_gop=0 / weightp=2 / keyint=250 / keyint_min=25 / scenecut=40 / intra_refresh=0 / rc=2pass / mbtree=0 / bitrate=1447 / ratetol=1.0 / qcomp=0.60 / qpmin=0 / qpmax=69 / qpstep=4 / cplxblur=20.0 / qblur=0.5 / ip_ratio=1.40 / pb_ratio=1.30 / aq=1:1.00
Default : Да
Forced : Нет

Аудио
Идентификатор : 2
Формат : AC-3
Формат/Информация : Audio Coding 3
Коммерческое название : Dolby Digital
Идентификатор кодека : A_AC3
Продолжительность : 1 ч. 34 м.
Вид битрейта : Постоянный
Битрейт : 192 Кбит/сек
Каналы : 2 канала
Channel layout : L R
Частота : 48,0 КГц
Частота кадров : 31,250 кадров/сек (1536 SPF)
Битовая глубина : 16 бит
Метод сжатия : С потерями
Размер потока : 130 Мбайт (12%)
Default : Да
Forced : Нет
pb.wtf



Скачать Вступление через торрент http://picplus.ru/img/1903/27/b9d88164.png Скачать фильм Вступление через торрент бесплантно в хорошем качестве Описание:По мотивам рассказов Веры Пановой "Валя" и "Володя".Когда началась война, Володя уехал с матерью из Ленинграда, а отец остался в ... 10 10 1
Торрент: Зарегистрирован [2019-03-27 08:51] · скачан: 12 раз
Статус: √ проверено
Размер: 1.09 GB
Как cкачать? Как скачать Вступление через торрент | qTorrent

% Раздел Тема Автор DL S | L
Кино СССР [ 1.09 GB ] Вступление [1963 СССР DVDRip от AVP Studio] AVP Studio Скачать
1 | 0
Документальные фильмы и телепередачи [ 74 MB ] Вступление в ВТО как вторая продажа Аляски [2012 документальный WEBRip Оригинал] metanoia Скачать
1 | 0
Фильмы до 2000 г. [ 1.88 GB ] Космическая одиссея 2010 / 2010: The Year We Make Contact [1984 BDRip-AVC] L_E_X Скачать
2 | 0

28-11-2019 20:33  

Отключить всю рекламу на сайте

    Дорогой пользователь! Огромная просьба, поблагодарите релизера, оцените раздачу и оставьте свои комментарий, если Вы скачали Вступление через торрент бесплатно! Внесите свою лепту в развитие PiratBit!
    Комментировать посты могут только пользователи прошедшие не сложную регистрацию
    Показать сообщения:    

    Вступление через торрент
    Скачать бесплатно Вступление
    Вступление скачать торрент
    Вступление смотреть онлайн
    Cкачать фильм Вступление бесплатно
    Вступление скачать торрент в хорошем качестве
    Вступление смотреть онлайн бесплатно в хорошем качестве


    Вы не можете начинать темы
    Вы не можете отвечать на сообщения
    Вы не можете редактировать свои сообщения
    Вы не можете удалять свои сообщения
    Вы не можете голосовать в опросах
    Вы не можете прикреплять файлы к сообщениям
    Вы можете скачивать файлы