новый адрес
Ссылка на приватное зеркало всего за 1$. Внимание количество ограничено!!!

iTunes

1+1

iTunes

мы

WEB-DL

1

iTunes

Чернобыль

iTunes

Ральф против интернета

Лицензия

ПШазам

Лицензия

Оно 2

Лицензия

30
pack

Вам бонус

ВАЖНО

!!Акция!!

Alien_RageХит недели

RePack

Resident Evil 21

ИГРА 18+

pack

RePack

jed

!!Акция!!

Alien_Rage

RePack

fifa19

RePack

Assassins Creed: Odyssey

RePack

NEED FOR SPEED™ PAYBACK

3 сезон

9 сезон

Бесстыжие 9 сезон

Все сериалы

все сериалы на PB.wtf

RePack

FAR CRY 5
Ребята, катастрофически не хватает 1900р. для оплаты серверов за Октябрь (всвязи с блокировками трафик упал в 3 раза), 1-2р., выручайте.
  

Стэн и Олли / Stan & Ollie (Джон С. Бейрд) [2018 г., Драма, комедия, биография, HDRip от OlLanDGroup] MVO (iTunes) pb.wtf

Стэн и Олли через торрент pb.wtf

Размер: 746 MB | Добавлен: 8 мес. назад | Торрент скачан:141 раз
Скачать  

28-03-2019 14:49 Стэн и Олли Скачать торрент  

Стэн и Олли / Stan & Ollie

Год выпуска: 2018
Страна: Великобритания, Канада, США
Жанр: Драма, комедия, биография

Продолжительность: 01:37:48

Перевод: Профессиональный (многоголосый, закадровый) | iTunes

Субтитры: Отсутствуют

Режиссер: Джон С. Бейрд


rating

В ролях: Джон С. Райлли, Ширли Хендерсон, Стив Кугэн, Нина Арианда, Дэнни Хьюстон, Стефани Хаям, Ричард Кэнт, Руфус Джонс, Сьюзи Кэйн, Джон Хеншоу

Описание: Худой британец Стэн Лорел и полный американец Оливер Харди стали одним из самых известных дуэтов американского классического кинематографа. До 1940 года они снимались на студии Roach, затем появились в восьми комедиях студий Fox и MGM, но к середине 1940-х они завязали с кинематографом и начали выступать вживую. История о том, что происходило за сценой, и как на самом деле жили люди, привыкшие смешить людей.

Качество: HDRip
Формат: AVI
Видео кодек: XviD
Аудио кодек: MP3
Видео: 688x288 (2.39:1), 23.976 fps, XviD build 73 ~928 kbps avg, 0.20 bit/pixel
Аудио#1: 48 kHz, MPEG Layer 3, 2 ch, ~128.00 kbps avg



General
Complete name : D:\Мои рипы\Stan&Ollie.HDRip.OlLanDGroup.avi
Format : AVI
Format/Info : Audio Video Interleave
File size : 746 MiB
Duration : 1 h 37 min
Overall bit rate : 1 066 kb/s
Writing application : VirtualDubMod 1.5.10.3 | www.virtualdub-fr.org || (build 2550/release)
Writing library : VirtualDubMod build 2550/release

Video
ID : 0
Format : MPEG-4 Visual
Format profile : Advanced Simple@L5
Format settings : BVOP1 / Custom Matrix
Format settings, BVOP : 1
Format settings, QPel : No
Format settings, GMC : No warppoints
Format settings, Matrix : Custom
Codec ID : XVID
Codec ID/Hint : XviD
Duration : 1 h 37 min
Bit rate : 929 kb/s
Width : 688 pixels
Height : 288 pixels
Display aspect ratio : 2.40:1
Frame rate : 23.976 (24000/1001) FPS
Color space : YUV
Chroma subsampling : 4:2:0
Bit depth : 8 bits
Scan type : Progressive
Compression mode : Lossy
Bits/(Pixel*Frame) : 0.196
Stream size : 650 MiB (87%)
Writing library : XviD 73

Audio
ID : 1
Format : MPEG Audio
Format version : Version 1
Format profile : Layer 3
Codec ID : 55
Codec ID/Hint : MP3
Duration : 1 h 37 min
Bit rate mode : Constant
Bit rate : 128 kb/s
Channel(s) : 2 channels
Sampling rate : 48.0 kHz
Frame rate : 41.667 FPS (1152 SPF)
Compression mode : Lossy
Stream size : 89.5 MiB (12%)
Alignment : Aligned on interleaves
Interleave, duration : 42 ms (1.00 video frame)
Interleave, preload duration : 504 ms
Writing library : LAME3.99r
Encoding settings : -m s -V 4 -q 2 -lowpass 17 -b 128

pb.wtf



Скачать Стэн и Олли через торрент https://i110.fastpic.ru/big/2019/0328/50/76bdb67fc0b72155dcfb8f07ffd58850.png Скачать фильм Стэн и Олли через торрент бесплантно в хорошем качестве Описание: Худой британец Стэн Лорел и полный американец Оливер Харди стали одним из самых известных дуэтов американского классического ... 7 10 3
Торрент: Зарегистрирован [2019-03-28 14:49] · скачан: 141 раз
Статус: √ проверено
Размер: 746 MB
Как cкачать? Как скачать Стэн и Олли через торрент | qTorrent

28-11-2019 20:33  

Отключить всю рекламу на сайте


    Дорогой пользователь! Огромная просьба, поблагодарите релизера, оцените раздачу и оставьте свои комментарий, если Вы скачали Стэн и Олли через торрент бесплатно! Внесите свою лепту в развитие PiratBit!
    Комментировать посты могут только пользователи прошедшие не сложную регистрацию
    Показать сообщения:    

    Стэн и Олли через торрент
    Скачать бесплатно Стэн и Олли
    Стэн и Олли скачать торрент
    Стэн и Олли смотреть онлайн
    Cкачать фильм Стэн и Олли бесплатно
    Стэн и Олли скачать торрент в хорошем качестве
    Стэн и Олли смотреть онлайн бесплатно в хорошем качестве


    Вы не можете начинать темы
    Вы не можете отвечать на сообщения
    Вы не можете редактировать свои сообщения
    Вы не можете удалять свои сообщения
    Вы не можете голосовать в опросах
    Вы не можете прикреплять файлы к сообщениям
    Вы можете скачивать файлы