новый адрес
Ссылка на приватное зеркало всего за 1$. Внимание количество ограничено!!!

iTunes

1+1

iTunes

мы

WEB-DL

1

iTunes

Чернобыль

iTunes

Ральф против интернета

Лицензия

ПШазам

Лицензия

Оно 2

Лицензия

30
pack

Вам бонус

ВАЖНО

!!Акция!!

Alien_RageХит недели

RePack

Resident Evil 21

ИГРА 18+

pack

RePack

jed

!!Акция!!

Alien_Rage

RePack

fifa19

RePack

Assassins Creed: Odyssey

RePack

NEED FOR SPEED™ PAYBACK

3 сезон

9 сезон

Бесстыжие 9 сезон

Все сериалы

все сериалы на PB.wtf

RePack

FAR CRY 5
Ребята, катастрофически не хватает 1900р. для оплаты серверов за Октябрь (всвязи с блокировками трафик упал в 3 раза), 1-2р., выручайте.
  

Море соблазна / Serenity (Стивен Найт) [2019, фантастика, триллер, драма, BDRip-AVC] MVO [HDRezka Studio] - ExKinoRay pb.wtf

Море соблазна через торрент pb.wtf

Раздают: 3 [ 0 KB/s ]
Размер: 1.45 GB | Добавлен: 8 мес. назад | Торрент скачан:1088 раз
Скачать  

29-03-2019 04:35 Море соблазна Скачать торрент  

Информация о фильме
Название: Море соблазна
Оригинальное название: Serenity
Год выпуска: 2019
Жанр: Триллер, драма
Режиссер: Стивен Найт
В ролях: Мэттью МакКонахи, Энн Хэтэуэй, Дайан Лэйн, Джейсон Кларк, Джимон Хонсу, Джереми Стронг, Шарлотта Батлер, Дэвид Батлер, Рафаэль Сайег, Майкл Ричард

О фильме:
Палящее солнце Карибских островов, верный корабль и жизнь, полная риска - его стихия. Единственная женщина, которую он любил, вышла замуж за миллиардера и живет на вилле в Майами. Неожиданно она вновь появляется в его жизни и умоляет о защите. С этой минуты знакомые воды превратятся в море соблазна...

rating

Страна: США
Студия: Global Road Entertainment, IM Global, Shoebox Films
Продолжительность: 01:46:00
Перевод: Профессиональный (многоголосый, закадровый) | HDRezka Studio
Субтитры: Английские

БЕЗ КАКОЙ-ЛИБО РЕКЛАМЫ!

Формат: MKV
Качество: BDRip-AVC
Видео: MPEG-4 AVC, 720x302 (2.40:1), 23.976 fps, 1505 Kbps, 0.289 bit/pixel
Аудио 1: 48 kHz, AC3, 2.0, 192 Kbps | MVO | RUS |
Аудио 2: 48 kHz, AAC, 5.1, 256 Kbps | Оригинал | ENG |
General
Unique ID : 185510038295156661157305396442865039065 (0x8B8FEF0BCB2B4F0A9C4800C6CC1776D9)
Complete name : D:\Serenity.2019.MVO.BDRip.AVC.ExKinoRay.mkv
Format : Matroska
Format version : Version 2
File size : 1.45 GiB
Duration : 1 h 46 min
Overall bit rate : 1 953 kb/s
Movie name : Serenity 2019 from ExKinoRay
Encoded date : UTC 2019-03-29 03:18:07
Writing application : mkvmerge v5.6.0 ('Kenya Kane') built on May 27 2012 16:44:04
Writing library : libebml v1.2.3 + libmatroska v1.3.0

Video
ID : 1
Format : AVC
Format/Info : Advanced Video Codec
Format profile : High@L4.1
Format settings, CABAC : Yes
Format settings, ReFrames : 12 frames
Codec ID : V_MPEG4/ISO/AVC
Duration : 1 h 46 min
Bit rate : 1 505 kb/s
Width : 720 pixels
Height : 302 pixels
Display aspect ratio : 2.40:1
Frame rate mode : Constant
Frame rate : 23.976 (24000/1001) FPS
Original frame rate : 23.976 (23976/1000) FPS
Color space : YUV
Chroma subsampling : 4:2:0
Bit depth : 8 bits
Scan type : Progressive
Bits/(Pixel*Frame) : 0.289
Stream size : 1.09 GiB (75%)
Title : Enigma
Writing library : x264 core 152 r2851 ba24899
Encoding settings : cabac=1 / ref=12 / deblock=1:-2:-2 / analyse=0x3:0x113 / me=umh / subme=10 / psy=1 / psy_rd=1.01:0.05 / mixed_ref=1 / me_range=32 / chroma_me=1 / trellis=2 / 8x8dct=1 / cqm=0 / deadzone=21,11 / fast_pskip=0 / chroma_qp_offset=-3 / threads=9 / lookahead_threads=2 / sliced_threads=0 / nr=0 / decimate=0 / interlaced=0 / bluray_compat=0 / constrained_intra=0 / bframes=10 / b_pyramid=2 / b_adapt=2 / b_bias=0 / direct=3 / weightb=1 / open_gop=0 / weightp=2 / keyint=240 / keyint_min=23 / scenecut=40 / intra_refresh=0 / rc_lookahead=40 / rc=2pass / mbtree=1 / bitrate=1505 / ratetol=1.0 / qcomp=0.60 / qpmin=0 / qpmax=51 / qpstep=4 / cplxblur=20.0 / qblur=0.5 / ip_ratio=1.30 / aq=2:0.90
Default : Yes
Forced : No
Color range : Limited
Color primaries : BT.709
Transfer characteristics : BT.709
Matrix coefficients : BT.709

Audio #1
ID : 2
Format : AC-3
Format/Info : Audio Coding 3
Mode extension : CM (complete main)
Format settings, Endianness : Big
Codec ID : A_AC3
Duration : 1 h 46 min
Bit rate mode : Constant
Bit rate : 192 kb/s
Channel(s) : 2 channels
Channel positions : Front: L R
Sampling rate : 48.0 kHz
Frame rate : 31.250 FPS (1536 spf)
Compression mode : Lossy
Stream size : 146 MiB (10%)
Title : MVO (HDRezka Studio)
Language : Russian
Default : No
Forced : No

Audio #2
ID : 3
Format : AC-3
Format/Info : Audio Coding 3
Mode extension : CM (complete main)
Format settings, Endianness : Big
Codec ID : A_AC3
Duration : 1 h 46 min
Bit rate mode : Constant
Bit rate : 256 kb/s
Channel(s) : 6 channels
Channel positions : Front: L C R, Side: L R, LFE
Sampling rate : 48.0 kHz
Frame rate : 31.250 FPS (1536 spf)
Compression mode : Lossy
Stream size : 194 MiB (13%)
Language : English
Default : No
Forced : No

Text #1
ID : 4
Format : UTF-8
Codec ID : S_TEXT/UTF8
Codec ID/Info : UTF-8 Plain Text
Title : Full
Language : English
Default : No
Forced : No

Text #2
ID : 5
Format : UTF-8
Codec ID : S_TEXT/UTF8
Codec ID/Info : UTF-8 Plain Text
Title : SDH
Language : English
Default : No
Forced : No

Menu
00:00:00.000 : en:Chapter 01
00:01:55.198 : en:Chapter 02
00:09:35.658 : en:Chapter 03
00:19:25.038 : en:Chapter 04
00:34:03.750 : en:Chapter 05
00:46:53.852 : en:Chapter 06
00:56:48.947 : en:Chapter 07
01:04:42.295 : en:Chapter 08
01:13:32.199 : en:Chapter 09
01:22:06.671 : en:Chapter 10
01:34:41.676 : en:Chapter 11
01:40:29.064 : en:Chapter 12
Релиз от:

Автор релиза: pb.wtf



Скачать Море соблазна через торрент https://a.radikal.ru/a05/1903/47/8a60e79d95eb.png Скачать фильм Море соблазна через торрент бесплантно в хорошем качестве О фильме: Палящее солнце Карибских островов, верный корабль и жизнь, полная риска - его стихия. Единственная женщина, которую он любил, ... 10 10 23
Info! Золотая раздача, скачанное не засчитывается.
Торрент: Зарегистрирован [2019-03-29 04:35] · скачан: 1 088 раз
Статус: T временная
Размер: 1.45 GB
Как cкачать? Как скачать Море соблазна через торрент | qTorrent

% Раздел Тема Автор DL S | L
Фильмы 2019 [DVDrip, WEB-DLRip, HDrip] (DUB, MVO) [ 1.4 GB ] Море соблазна / Serenity [2019 BDRip-AVC] Dub - ExKinoRay Enigma2010 Скачать
15 | 1

28-11-2019 20:33  

Отключить всю рекламу на сайте

18-04-2019 10:01 Море соблазна Скачать торрент  

Перевод *Море соблазна* противоречит смыслу оригинального названия, что с самого начала вносит определенный диссонанс в восприятие. До *Серенити* Стивен Найт в качестве режиссера снял фильмы *Эффект колибри* и *Лок*. Фильмы довольно необычные и не очень рассчитанные на массового зрителя. При этом мы точно знаем, что Найт отлично умеет писать коммерчески успешные и привлекательные для телезрителей истории. Например *Острые козырьки* и сериал *Табу* (2017). *Серенити* не обычный триллер, есть элементы фантастики, неонуара и явная тяга к созданию авторского кино. Фильм снят очень хорошо, кастинг великолепный, музыка Бенджамина Уоллфиша настолько органично дополняет видеоряд, что ее значение для картины невозможно переоценить. Впечатление от фильма похоже на впечатления от музыки группы *Bohren & der Club of Gore*. Такое искусство нравится далеко не всем, ничего страшного, хорошо, что оно все же есть, а люди сами выберут то, что им нравится. Спасибо за раздачу.pb.wtf



    Дорогой пользователь! Огромная просьба, поблагодарите релизера, оцените раздачу и оставьте свои комментарий, если Вы скачали Море соблазна через торрент бесплатно! Внесите свою лепту в развитие PiratBit!
    Комментировать посты могут только пользователи прошедшие не сложную регистрацию
    Показать сообщения:    

    Море соблазна через торрент
    Скачать бесплатно Море соблазна
    Море соблазна скачать торрент
    Море соблазна смотреть онлайн
    Cкачать фильм Море соблазна бесплатно
    Море соблазна скачать торрент в хорошем качестве
    Море соблазна смотреть онлайн бесплатно в хорошем качестве


    Вы не можете начинать темы
    Вы не можете отвечать на сообщения
    Вы не можете редактировать свои сообщения
    Вы не можете удалять свои сообщения
    Вы не можете голосовать в опросах
    Вы не можете прикреплять файлы к сообщениям
    Вы можете скачивать файлы