новый адрес
Мега распродажа FORZA HORIZON 4 ULTIMATE+ВСЕ DLC+ОНЛАЙН всего за 499р. 349 руб. (супер цена). Внимание количество ограничено!!!

iTunes

1+1

iTunes

мы

iTunes

1

iTunes

Чернобыль

iTunes

Ральф против интернета

Лицензия

ПШазам

Лицензия

Оно 2

Лицензия

30
pack

ВАЖНО

!!Акция!!

Alien_RageХит недели

RePack

Resident Evil 21

ИГРА 18+

pack

RePack

jed

!!Акция!!

Alien_Rage

RePack

fifa19

RePack

Assassins Creed: Odyssey

RePack

NEED FOR SPEED™ PAYBACK

3 сезон

9 сезон

Бесстыжие 9 сезон

Все сериалы

все сериалы на PB.wtf

RePack

FAR CRY 5
Ребята, катастрофически не хватает 1900р. для оплаты серверов за Октябрь (всвязи с блокировками трафик упал в 3 раза), 1-2р., выручайте.
  

Т-34 (Алексей Сидоров) [2018 г., Драма, военный, приключения, BDRip, Лицензия] pb.wtf

Т-34 через торрент pb.wtf

Раздают: 1 [ 0 KB/s ]
Размер: 2.17 GB | Добавлен: 7 мес. назад | Торрент скачан:383 раза
Скачать  

29-03-2019 06:55 Т-34 Скачать торрент  

Т-34
Год выпуска: 2018
Страна: Россия
Жанр: Драма, военный, приключения
Продолжительность: 02:19:08
Перевод: Дубляж Лицензия + одноголосый на немецкую речь | Лицензия BD RUS
Субтитры: Отсутствуют

Режиссер: Алексей Сидоров

rating

В ролях: Александр Петров, Виктор Добронравов, Ирина Старшенбаум, Винценц Кифер, Петр Скворцов, Семен Трескунов, Антон Богданов, Василий Уриевский, Василий Буткевич, Ярослав Штефан и др.

Описание: Во времена величайших испытаний человечества, когда от каждого действия зависят жизни любимых, два заклятых врага начнут свое противостояние. Оказавшись в плену, вчерашний курсант Ивушкин планирует дерзкий побег. Он собирает свой экипаж и на легендарной «тридцатьчетверке» бросает вызов немецким танковым асам во главе с Ягером. Ради своей любви и Родины он готов идти до конца.

Доп. информация: Рекламы нет.

Качество: BDRip
Формат: AVI
Видео кодек: XviD
Аудио кодек: AC3
Видео: Xvid 73, 720x304, ~1775 kbps, 24,000 fps
Аудио#1: AC3, 5.1 ch, 48 kHz, 16 bit, 448 kbps
скриншот   скриншот   скриншот   скриншот  

General
Полное имя : E:TorrentT34BDRip2.avi
Формат : AVI
Формат/Информация : Audio Video Interleave
Профиль формата : OpenDML
Размер файла : 2.17 GiB
Продолжительность : 2 h 19 min
Общий поток : 2 233 kb/s
Программа кодирования : XviD4PSP 6.0 / 54.27.101

Video
Идентификатор : 0
Формат : MPEG-4 Visual
Профиль формата : Advanced Simple@L5
Настройки формата : BVOP2 / Custom Matrix
Параметр BVOP формата : 2
Параметр QPel формата : No
Параметр GMC формата : No warppoints
Параметр матрицы формата : Custom
Идентификатор кодека : XVID
Идентификатор кодека/Подсказка : XviD
Продолжительность : 2 h 19 min
Битрейт : 1 775 kb/s
Ширина : 720 pixels
Высота : 304 pixels
Соотношение сторон : 2.35:1
Частота кадров : 24.000 FPS
Цветовое пространство : YUV
Субдискретизация насыщенности : 4:2:0
Битовая глубина : 8 bits
Тип развёртки : Progressive
Метод сжатия : Lossy
Бит/(Пиксели*Кадры) : 0.338
Размер потока : 1.72 GiB (79%)
Библиотека кодирования : XviD 73

Audio
Идентификатор : 1
Формат : AC-3
Формат/Информация : Audio Coding 3
Идентификатор кодека : 2000
Продолжительность : 2 h 19 min
Вид битрейта : Constant
Битрейт : 448 kb/s
Каналы : 6 channels
Расположение каналов : Front: L C R, Side: L R, LFE
Частота : 48.0 kHz
Частота кадров : 31.250 FPS (1536 SPF)
Битовая глубина : 16 bits
Метод сжатия : Lossy
Размер потока : 446 MiB (20%)
Выравнивание : Aligned on interleaves
Продолжительность промежутка : 32 ms (0.77 video frame)

pb.wtf



Скачать Т-34 через торрент http://pic1.kartinco.top/images/12/4rcsc.jpg Скачать фильм Т-34 через торрент бесплантно в хорошем качестве Описание: Во времена величайших испытаний человечества, когда от каждого действия зависят жизни любимых, два заклятых врага начнут свое ... 6.9 10 12
Торрент: Зарегистрирован [2019-03-29 06:55] · скачан: 383 раз
Статус: √ проверено
Размер: 2.17 GB
Как cкачать? Как скачать Т-34 через торрент | qTorrent

% Раздел Тема Автор DL S | L
Наши фильмы (HD, WEB-DL 720p, 1080p) [ 4.26 GB ] Т-34 [2018 военный BDRip 1080p-HEVC 10bit] ADVOKAT69 Скачать
1 | 0
Наши новые фильмы 2018-2019 [ 2.18 GB ] Т-34 [2019 военный BDRip] Twi7ter Скачать
7 | 0
Наши фильмы (HD, WEB-DL 720p, 1080p) [ 8.27 GB ] Т-34 [2019 военный BDRip-HEVC 1080p ] [ BD RUS] bober100 Скачать
1 | 0
Наши фильмы (Blu-ray, BD-Remux, HDDVD) [ 33.45 GB ] Т-34 [2018 военный BDRemux 1080p] [] sheker187 Скачать
2 | 0
Наши новые фильмы 2018-2019 [ 1.46 GB ] Т-34 [2019 военный BDRip] [] Twi7ter Скачать
2 | 0
Наши новые фильмы 2018-2019 [ 2.4 GB ] Т-34 [2019 военный BDRip-AVC] от ExKinoRay morfyi Скачать
2 | 0
Наши фильмы (HD, WEB-DL 720p, 1080p) [ 7.28 GB ] Т-34 [2019 военный BDRip 720p] [ BD RUS] bober100 Скачать
1 | 0


>> Регистрируемся здесь <<






Отзывы и комментарии о схеме читаем и пишем здесь: ---> Отзывы и комментарии о схеме

Новые благодарочки в телеграм довольных пользователей:
скриншот   скриншот   скриншот   скриншот   скриншот

29-03-2019 12:40 Т-34 Скачать торрент  

Все уже закупили наклейки на свои тазики "Можем Повторить","Спасибо бабе и деду за Великую Победу"?Ну после просмотра сия"шедевра" самые стойкие побегут скупаться и таки да-ленточку"георгиевскую" не забыть бы на "дворник"примотать..pb.wtf



29-03-2019 13:17 Т-34 Скачать торрент  

Stopper68 писал(а):

Все уже закупили наклейки на свои тазики "Можем Повторить","Спасибо бабе и деду за Великую Победу"?Ну после просмотра сия"шедевра" самые стойкие побегут скупаться и таки да-ленточку"георгиевскую" не забыть бы на "дворник"примотать..

Таки не таки. Но советскому солдату точно спасибо!pb.wtf



30-03-2019 10:22 Т-34 Скачать торрент  

Хороший фильм !pb.wtf



30-03-2019 10:23 Т-34 Скачать торрент  

Stopper68, И наклейку и ленту все наклею и примотаю! Всем врагам на зло !pb.wtf



    Дорогой пользователь! Огромная просьба, поблагодарите релизера, оцените раздачу и оставьте свои комментарий, если Вы скачали Т-34 через торрент бесплатно! Внесите свою лепту в развитие PiratBit!
    Комментировать посты могут только пользователи прошедшие не сложную регистрацию
    Показать сообщения:    

    Т-34 через торрент
    Скачать бесплатно Т-34
    Т-34 скачать торрент
    Т-34 смотреть онлайн
    Cкачать фильм Т-34 бесплатно
    Т-34 скачать торрент в хорошем качестве
    Т-34 смотреть онлайн бесплатно в хорошем качестве


    Вы не можете начинать темы
    Вы не можете отвечать на сообщения
    Вы не можете редактировать свои сообщения
    Вы не можете удалять свои сообщения
    Вы не можете голосовать в опросах
    Вы не можете прикреплять файлы к сообщениям
    Вы можете скачивать файлы