новый адрес пиратбит piratbit
Мега распродажа FORZA HORIZON 4 ULTIMATE+ВСЕ DLC+ОНЛАЙН всего за 499р. 349 руб. (супер цена). Внимание количество ограничено!!!

iTunes

1+1

iTunes

мы

iTunes

1

iTunes

Чернобыль

iTunes

Ральф против интернета

Лицензия

ПШазам

Лицензия

Игра престолов

Лицензия

30
pack

ВАЖНО

!!Акция!!

Alien_RageХит недели

RePack

Resident Evil 21

ИГРА 18+

pack

RePack

Metro:Exodus

!!Акция!!

Alien_Rage

RePack

fifa19

RePack

Assassins Creed: Odyssey

RePack

NEED FOR SPEED™ PAYBACK

3 сезон

9 сезон

Бесстыжие 9 сезон

Все сериалы

все сериалы на PB.wtf

RePack

FAR CRY 5
Ребята, катастрофически не хватает 1900р. для оплаты серверов за Октябрь (всвязи с блокировками трафик упал в 3 раза), 1-2р., выручайте.
  

Громкая связь (Алексей Нужный) [2019 г., Комедия, WEB-DLRip] iTunes pb.wtf

Громкая связь через торрент pb.wtf

Раздают: 16 [ 0 KB/s ]
Размер: 1.45 GB | Добавлен: 7 мес. назад | Торрент скачан:3605 раз
Скачать  

29-03-2019 08:36 Громкая связь Скачать торрент  

Громкая связь
Год выпуска: 2019
Страна: Россия
Жанр: Комедия
Продолжительность: 01:35:32
Перевод: Не требуется Русский iTunes
Субтитры: Отсутствуют

Режиссер: Алексей Нужный

rating

В ролях: Анастасия Уколова, Леонид Барац, Ирина Горбачёва, Ростислав Хаит, Мария Миронова, Камиль Ларин, Вероника Корниенко, Александр Демидов, Анастасия Ясева

Описание: Семеро друзей, собравшись в загородном доме, в шутку начинают игру — участники должны зачитывать вслух все приходящие им сообщения, а на звонки отвечать только по громкой связи. Они и представить себе не могут, какие удивительные откровения им предстоит сделать друг о друге.

Доп. информация: Рекламы нет

Качество: WEB-DLRip
Формат: AVI
Видео кодек: XviD
Аудио кодек: AC3
Видео: XviD, 720x304, ~1776 Kbps
Аудио#1: AC-3, 6 ch, 384 Kbps
скриншот   скриншот   скриншот   скриншот  

Общее
Полное имя : D:\NNM\Громкая связь\Gromkaya svazj 2019 WEBDLRip.avi
Формат : AVI
Формат/Информация : Audio Video Interleave
Профиль формата : OpenDML
Размер файла : 1,45 Гбайт
Продолжительность : 1 ч. 35 м.
Общий поток : 2172 Кбит/сек
Программа кодирования : XviD4PSP 6.0 / 54.27.101

Видео
Идентификатор : 0
Формат : MPEG-4 Visual
Профиль формата : Advanced Simple@L5
Настройки формата : BVOP2 / Custom Matrix
Параметр BVOP формата : 2
Параметр QPel формата : Нет
Параметр GMC формата : Без точки перехода
Параметр матрицы формата : Выборочная
Идентификатор кодека : XVID
Идентификатор кодека/Подсказка : XviD
Продолжительность : 1 ч. 35 м.
Битрейт : 1776 Кбит/сек
Ширина : 720 пикселей
Высота : 304 пикселя
Соотношение сторон : 2,35:1
Частота кадров : 24,000 кадра/сек
Цветовое пространство : YUV
Субдискретизация насыщенности : 4:2:0
Битовая глубина : 8 бит
Тип развёртки : Прогрессивная
Метод сжатия : С потерями
Бит/(Пиксели*Кадры) : 0.338
Размер потока : 1,19 Гбайт (82%)
Библиотека кодирования : XviD 73

Аудио
Идентификатор : 1
Формат : AC-3
Формат/Информация : Audio Coding 3
Коммерческое название : Dolby Digital
Идентификатор кодека : 2000
Продолжительность : 1 ч. 35 м.
Вид битрейта : Постоянный
Битрейт : 384 Кбит/сек
Каналы : 6 каналов
Channel layout : L R C LFE Ls Rs
Частота : 48,0 КГц
Частота кадров : 31,250 кадров/сек (1536 SPF)
Битовая глубина : 16 бит
Метод сжатия : С потерями
Размер потока : 262 Мбайт (18%)
Выравнивание : Соединение по промежуткам
Продолжительность промежутка : 32 мс. (0,77 видеокадр)
ServiceKind/String : Complete Main

pb.wtf



Скачать Громкая связь через торрент http://pic1.kartinco.top/images/12/sqsy1.jpg Скачать фильм Громкая связь через торрент бесплантно в хорошем качестве Описание: Семеро друзей, собравшись в загородном доме, в шутку начинают игру — участники должны зачитывать вслух все приходящие им ... 9 10 56
Info! Золотая раздача, скачанное не засчитывается.
Торрент: Зарегистрирован [2019-03-29 08:36] · скачан: 3 605 раз
Статус: √ проверено
Размер: 1.45 GB
Как cкачать? Как скачать Громкая связь через торрент | qTorrent

% Раздел Тема Автор DL S | L
Наши новые фильмы 2018-2019 [ 743 MB ] Громкая связь [2018 WEB-DLRip-AVC] eretic91 Скачать
2 | 0
Наши фильмы (HD, WEB-DL 720p, 1080p) [ 3.32 GB ] Громкая связь [2018 WEB-DL 1080p] DEVI Скачать
13 | 0


>> Регистрируемся здесь <<






Отзывы и комментарии о схеме читаем и пишем здесь: ---> Отзывы и комментарии о схеме

Новые благодарочки в телеграм довольных пользователей:
скриншот   скриншот   скриншот   скриншот   скриншот

29-03-2019 10:11 Громкая связь Скачать торрент  

Я уже смотрел "Идеальные незнакомцы"pb.wtf



29-03-2019 14:47 Громкая связь Скачать торрент  

Три И - гомосеки! И фильмы с ними -жопа в говне!
pb.wtf



29-03-2019 16:46 Громкая связь Скачать торрент  

Это типа идеальные незнакомцы??? Сто пудов ахуенный оригинал обговнялиpb.wtf



29-03-2019 19:34 Громкая связь Скачать торрент  

Rashadbey писал(а):

Я уже смотрел "Идеальные незнакомцы"

+
Своего придумать не можем....pb.wtf



30-03-2019 02:15 Громкая связь Скачать торрент  

Смысл снимать то, что уже снято другими? Для ремейка рановатоpb.wtf



30-03-2019 05:15 Громкая связь Скачать торрент  

Типичный убогий рус. кинематограф.pb.wtf



31-03-2019 08:40 Громкая связь Скачать торрент  

занудство еще то.pb.wtf



31-03-2019 18:35 Громкая связь Скачать торрент  

Снято при поддержке фонда кино, вездесущая реклама, отсутствие каких-либо затрат на съемку фильма (аренда 3 машин, 1 дачи и 10 актеров)... который раз схема сработала... ха-ха...classic...pb.wtf



03-04-2019 15:36 Громкая связь Скачать торрент  

от режиссера "Я ХУ.... ЕЮ" pb.wtf



03-04-2019 19:17 Громкая связь Скачать торрент  

ALEXUSS писал(а):

Три И - гомосеки! И фильмы с ними -жопа в говне!

В точку))pb.wtf



03-04-2019 19:36 Громкая связь Скачать торрент  

ALEXUSS писал(а):

Три И - гомосеки! И фильмы с ними -жопа в говне!

поддерживаю , скачал оригинал-еще разок гляну!pb.wtf



    Дорогой пользователь! Огромная просьба, поблагодарите релизера, оцените раздачу и оставьте свои комментарий, если Вы скачали Громкая связь через торрент бесплатно! Внесите свою лепту в развитие PiratBit!
    Комментировать посты могут только пользователи прошедшие не сложную регистрацию
    Показать сообщения:    

    Громкая связь через торрент
    Скачать бесплатно Громкая связь
    Громкая связь скачать торрент
    Громкая связь смотреть онлайн
    Cкачать фильм Громкая связь бесплатно
    Громкая связь скачать торрент в хорошем качестве
    Громкая связь смотреть онлайн бесплатно в хорошем качестве


    Вы не можете начинать темы
    Вы не можете отвечать на сообщения
    Вы не можете редактировать свои сообщения
    Вы не можете удалять свои сообщения
    Вы не можете голосовать в опросах
    Вы не можете прикреплять файлы к сообщениям
    Вы можете скачивать файлы