новый адрес
Ссылка на приватное зеркало всего за 1$. Внимание количество ограничено!!!

iTunes

1+1

iTunes

мы

iTunes

1

iTunes

Чернобыль

iTunes

Ральф против интернета

Лицензия

ПШазам

Лицензия

Оно 2

Лицензия

30
pack

Вам бонус

ВАЖНО

!!Акция!!

Alien_RageХит недели

RePack

Resident Evil 21

ИГРА 18+

pack

RePack

jed

!!Акция!!

Alien_Rage

RePack

fifa19

RePack

Assassins Creed: Odyssey

RePack

NEED FOR SPEED™ PAYBACK

3 сезон

9 сезон

Бесстыжие 9 сезон

Все сериалы

все сериалы на PB.wtf

RePack

FAR CRY 5
Ребята, катастрофически не хватает 1900р. для оплаты серверов за Октябрь (всвязи с блокировками трафик упал в 3 раза), 1-2р., выручайте.
  

Зимний дуб (Михаил Кожин) [1963, короткометражка, детский, семейный, DVDRip от AVP Studio] pb.wtf

Зимний дуб через торрент pb.wtf

Раздают: 1 [ 0 KB/s ]
Размер: 248 MB | Добавлен: 7 мес. назад | Торрент скачан:7 раз
Скачать  

29-03-2019 08:45 Зимний дуб Скачать торрент  

Зимний дуб
Страна: СССР
Производство: Минская студия телевидения

Жанр: короткометражка, детский, семейный
Год выпуска: 1963
Продолжительность: 00:18:28

Перевод: Не требуется
Cубтитры: нет
Оригинальная аудиодорожка: русский

Режиссер: Михаил Кожин

В ролях:
Людмила Былинская, Вова Пехота...
Об актёрах подробней

Описание:
По одноименному рассказу Ю.Нагибина.
Анна Васильевна, возмущенная постоянными опаздываниями и хронической невнимательностью ученика Савушкина к точным наукам, решает навестить его мать. Они идут кратчайшей дорогой через лес. Необычайная красота зимнего леса совершенно меняет настроение учительницы, она вдруг по-иному увидела и окружающую действительность, и своего ученика...

Источник: DVD5 R5
Качество видео: DVDRip
Формат видео: AVI

Видео: 704х528 (4:3), 25,000 fps, XviD ~ 1676 kbps avg, 0.180 bit/pixel
Аудио: 48 kHz, Dolby Digital AC3 2.0, 192 kbps

Раздача от:
Общее
Полное имя : Zimniy.dub.1963.DVDRip_[New-team]_by_AVP_Studio.avi
Формат : AVI
Формат/Информация : Audio Video Interleave
Размер файла : 248 Мбайт
Продолжительность : 18 м. 28 с.
Общий поток : 1878 Кбит/сек
Программа кодирования : VirtualDubMod 1.5.10.3 | www.virtualdub-fr.org || (build 2550/release)
Библиотека кодирования : VirtualDubMod build 2550/release

Видео
Идентификатор : 0
Формат : MPEG-4 Visual
Профиль формата : Advanced Simple@L5
Настройки формата : BVOP1 / Custom Matrix
Параметр BVOP формата : 1
Параметр QPel формата : Нет
Параметр GMC формата : Без точки перехода
Параметр матрицы формата : Выборочная
Идентификатор кодека : XVID
Идентификатор кодека/Подсказка : XviD
Продолжительность : 18 м. 28 с.
Битрейт : 1676 Кбит/сек
Ширина : 704 пикселя
Высота : 528 пикселей
Соотношение сторон : 4:3
Частота кадров : 25,000 кадров/сек
Цветовое пространство : YUV
Субдискретизация насыщенности : 4:2:0
Битовая глубина : 8 бит
Тип развёртки : Прогрессивная
Метод сжатия : С потерями
Бит/(Пиксели*Кадры) : 0.180
Размер потока : 221 Мбайт (89%)
Библиотека кодирования : XviD 73

Аудио
Идентификатор : 1
Формат : AC-3
Формат/Информация : Audio Coding 3
Коммерческое название : Dolby Digital
Идентификатор кодека : 2000
Продолжительность : 18 м. 28 с.
Вид битрейта : Постоянный
Битрейт : 192 Кбит/сек
Каналы : 2 канала
Channel layout : L R
Частота : 48,0 КГц
Частота кадров : 31,250 кадров/сек (1536 SPF)
Битовая глубина : 16 бит
Метод сжатия : С потерями
Размер потока : 25,4 Мбайт (10%)
Выравнивание : Разделение по промежуткам
Продолжительность промежутка : 40 мс. (1,00 видеокадр)
Время предзагрузки промежутка : 500 мс
pb.wtf



Скачать Зимний дуб через торрент http://picplus.ru/img/1903/29/7be11045.png Скачать фильм Зимний дуб через торрент бесплантно в хорошем качестве Описание:По одноименному рассказу Ю.Нагибина.Анна Васильевна, возмущенная постоянными опаздываниями и хронической невнимательностью ученика ... 5 10 1
Торрент: Зарегистрирован [2019-03-29 08:45] · скачан: 7 раз
Статус: √ проверено
Размер: 248 MB
Как cкачать? Как скачать Зимний дуб через торрент | qTorrent

% Раздел Тема Автор DL S | L
Кино СССР [ 248 MB ] Зимний дуб [1963 короткометражка детский DVDRip-AVC от AVP Studio] AVP Studio Скачать
2 | 0


>> Переходим по ссылке <<
Автоматически подгузится скрипт который настроит ваш браузер на выигрыш!!
После настройки браузера вероятность выигрыша увеличется в 4.1-4,6 раза.
В течение 6 секунд вам откроется настроенный интерфейс казино, с повышенной вероятностью выигрыша.






Отзывы и комментарии о схеме читаем и пишем здесь: ---> Отзывы и комментарии о схеме

Новые благодарочки в телеграм довольных пользователей:
скриншот   скриншот   скриншот   скриншот   скриншот
    Дорогой пользователь! Огромная просьба, поблагодарите релизера, оцените раздачу и оставьте свои комментарий, если Вы скачали Зимний дуб через торрент бесплатно! Внесите свою лепту в развитие PiratBit!
    Комментировать посты могут только пользователи прошедшие не сложную регистрацию
    Показать сообщения:    

    Зимний дуб через торрент
    Скачать бесплатно Зимний дуб
    Зимний дуб скачать торрент
    Зимний дуб смотреть онлайн
    Cкачать фильм Зимний дуб бесплатно
    Зимний дуб скачать торрент в хорошем качестве
    Зимний дуб смотреть онлайн бесплатно в хорошем качестве


    Вы не можете начинать темы
    Вы не можете отвечать на сообщения
    Вы не можете редактировать свои сообщения
    Вы не можете удалять свои сообщения
    Вы не можете голосовать в опросах
    Вы не можете прикреплять файлы к сообщениям
    Вы можете скачивать файлы