Ссылка на приватное зеркало всего за 1$. Внимание количество ограничено!!!

iTunes

iTunes

iTunes

1

iTunes

iTunes

iTunes

WEBRip

iTunes

30
pack

$ от Little Big

ВАЖНО

!!Акция!!

Alien_RageХит недели

RePack

Resident Evil 21

ИГРА 18+

pack

RePack

jed

!!Акция!!

Alien_Rage

RePack

fifa19

RePack

Assassins Creed: Odyssey

RePack

NEED FOR SPEED™ PAYBACK

4 сезон

9 сезон

Бесстыжие 9 сезон

Все сериалы

все сериалы на PB.wtf

RePack

FAR CRY 5
  

Те, кем мы не были / The Way We Werent (Рик Хэйс) [2019 г., Комедия, WEB-DLRip, Любительский (многоголосый)(Синема УС)] pb.wtf

Те, кем мы не были через торрент pb.wtf

Размер: 1.34 GB | Добавлен: 1 год 4 мес. назад | Торрент скачан:312 раз
Скачать  

29-03-2019 09:26 Те, кем мы не были Скачать торрент  

Те кем мы не были / The Way We Werent
Год выпуска: 2019
Страна: США
Жанр: Комедия
Продолжительность: 01:31:36
Перевод: Любительский (многоголосый)(Синема УС)
Субтитры: Отсутствуют

Режиссер: Рик Хэйс

rating

В ролях: Фиона Губелманн, Бен Лосон, Тобин Белл, Кит Пауэлл, Эмбер Стивенс, Александра Дейвис, Алан Симпсон, Кристи Клэйнос, Алисса Диас, Ронни Джин Блевинс

Описание: Одинокие мужчина и женщина встречают друг друга сразу после того, как их прежним отношениям приходит конец. Поэтому, в попытке показать себя с лучшей стороны, они преувеличивают, придумывают и откровенно лгут. Однако после того, как молодые съезжаются и начинают жить вместе, вся ложь выходит на поверхность.

Доп. информация: Присутствуют вставки текстовой рекламы

Качество: WEB-DLRip
Формат: AVI
Видео кодек: XviD
Аудио кодек: AC3
Видео: XviD, 720x304, ~1690 Kbps
Аудио#1: AC-3, 2 ch, 384 Kbps
скриншот   скриншот   скриншот   скриншот  

Общее
Полное имя : D:\NNM\Те, кем мы не были\The Way We Werent 2019 WEB-DLRip.avi
Формат : AVI
Формат/Информация : Audio Video Interleave
Профиль формата : OpenDML
Размер файла : 1,34 Гбайт
Продолжительность : 1 ч. 31 м.
Общий поток : 2087 Кбит/сек

Видео
Идентификатор : 0
Формат : MPEG-4 Visual
Профиль формата : Advanced Simple@L5
Настройки формата : BVOP2
Параметр BVOP формата : 2
Параметр QPel формата : Нет
Параметр GMC формата : Без точки перехода
Параметр матрицы формата : Default (H.263)
Идентификатор кодека : XVID
Идентификатор кодека/Подсказка : XviD
Продолжительность : 1 ч. 31 м.
Битрейт : 1690 Кбит/сек
Ширина : 720 пикселей
Высота : 304 пикселя
Соотношение сторон : 2,35:1
Частота кадров : 23,976 (24000/1001) кадра/сек
Цветовое пространство : YUV
Субдискретизация насыщенности : 4:2:0
Битовая глубина : 4 бит
Тип развёртки : Прогрессивная
Метод сжатия : С потерями
Бит/(Пиксели*Кадры) : 0.322
Размер потока : 1,08 Гбайт (81%)
Библиотека кодирования : XviD 1.2.1 (UTC 2008-12-04)

Аудио
Идентификатор : 1
Формат : AC-3
Формат/Информация : Audio Coding 3
Коммерческое название : Dolby Digital
Идентификатор кодека : 2000
Продолжительность : 1 ч. 31 м.
Вид битрейта : Постоянный
Битрейт : 384 Кбит/сек
Каналы : 2 канала
Channel layout : L R
Частота : 48,0 КГц
Частота кадров : 31,250 кадров/сек (1536 SPF)
Битовая глубина : 16 бит
Метод сжатия : С потерями
Размер потока : 252 Мбайт (18%)
Выравнивание : Соединение по промежуткам
Продолжительность промежутка : 32 мс. (0,77 видеокадр)
ServiceKind/String : Complete Main

pb.wtf



Скачать Те, кем мы не были через торрент http://pic1.kartinco.top/images/12/n2r5t.jpg Скачать фильм Те, кем мы не были через торрент бесплантно в хорошем качестве Описание: Одинокие мужчина и женщина встречают друг друга сразу после того, как их прежним отношениям приходит конец. Поэтому, в попытке ... 9.3 10 3
Торрент: Зарегистрирован [2019-03-29 09:26] · скачан: 312 раз
Статус: √ проверено
Размер: 1.34 GB
Как cкачать? Как скачать Те, кем мы не были через торрент | qTorrent

28-11-2019 20:33  

Отключить всю рекламу на сайте

    Дорогой пользователь! Огромная просьба, поблагодарите релизера, оцените раздачу и оставьте свои комментарий, если Вы скачали Те, кем мы не были через торрент бесплатно! Внесите свою лепту в развитие PiratBit!
    Комментировать посты могут только пользователи прошедшие не сложную регистрацию
    Показать сообщения:    

    Те, кем мы не были через торрент
    Скачать бесплатно Те, кем мы не были
    Те, кем мы не были скачать торрент
    Те, кем мы не были смотреть онлайн
    Cкачать фильм Те, кем мы не были бесплатно
    Те, кем мы не были скачать торрент в хорошем качестве
    Те, кем мы не были смотреть онлайн бесплатно в хорошем качестве


    Вы не можете начинать темы
    Вы не можете отвечать на сообщения
    Вы не можете редактировать свои сообщения
    Вы не можете удалять свои сообщения
    Вы не можете голосовать в опросах
    Вы не можете прикреплять файлы к сообщениям
    Вы можете скачивать файлы