Ссылка на приватное зеркало нашего сайта всего за 1$. Внимание количество ограничено!!!

2 сезон

iTunes

1 сезон

1

2 сезон

2 сезон

iTunes

1 сезон

RePack

30

Ultimate

ВАЖНО

ИГРА 18+

pack

RePack

MK11
pack

Забери бонус

RePack

jed

!!Акция!!

Alien_Rage

RePack

fifa19

RePack

Assassins Creed: Odyssey

RePack

NEED FOR SPEED™ PAYBACK

4 сезон

9 сезон

Бесстыжие 9 сезон

Все сериалы

все сериалы на PB.wtf

RePack

FAR CRY 5
  

Разбойники с большой дороги / The Highwaymen (Джон Ли Хэнкок) [2019, триллер, драма, криминал, детектив, WEB-DL 1080p] [DUB] (АРК-ТВ Studio) pb.wtf

Разбойники с большой дороги через торрент pb.wtf

Размер: 5.46 GB | Добавлен: 1 год 8 мес. назад | Торрент скачан:1284 раза
Скачать  

29-03-2019 10:53 Разбойники с большой дороги Скачать торрент  

Разбойники с большой дороги / The Highwaymen
Год выпуска: 2019
Производство: США, Universal Pictures, Casey Silver Productions, Media Rights Capital (MRC), Netflix
Жанр: триллер, драма, криминал, детектив
Продолжительность: 02:12:00

Перевод: Профессиональный (полное дублирование) | АРК-ТВ Studio и VSI International
Субтитры: русские (форсированные, полные), английские (SDH)

Режиссер: Джон Ли Хэнкок / John Lee Hancock
В ролях: Кевин Костнер, Вуди Харрельсон, Ким Диккенс, Кэти Бейтс, Томас Манн, Джон Кэрролл Линч, У. Эрл Браун, Дэвид Фурр, Эмили Бробст

Описание: В 1930-е годы техасский рейнджер Фрэнк Хеймер получает задание поймать и обезвредить двух опасных грабителей банков. Вместе с напарником Мэнни Голтом он возглавляет охоту за парочкой молодых неуловимых преступников, которых зовут Бонни и Клайд.

rating

Качество: WEB-DL 1080p | NTG
Контейнер: MKV
Видео: AVC, 1920x1080 (16:9), 24 fps, ~5110 kbps
Аудио №1: AC3 5.1, 48 kHz, 384 kbps
Аудио №2: E-AC3+Atmos 5.1, 48 kHz, 448 kbps
Формат субтитров: softsub (SRT)

Релиз: EniaHD
General
Unique ID : 54288618233433452918093493149124826968 (0x28D79B885D7CF364FC7FC698629C9758)
Complete name : G:\The.Highwaymen.2019.1080p.NF.WEB-DL.DDP5.1.x264-EniaHD.mkv
Format : Matroska
Format version : Version 4 / Version 2
File size : 5.46 GiB
Duration : 2 h 12 min
Overall bit rate mode : Variable
Overall bit rate : 5 911 kb/s
Movie name : The Highwaymen (2019) - EniaHD
Encoded date : UTC 2019-03-29 08:01:14
Writing application : mkvmerge v32.0.0 ('Astral Progressions') 64-bit
Writing library : libebml v1.3.7 + libmatroska v1.5.0

Video
ID : 1
Format : AVC
Format/Info : Advanced Video Codec
Format profile : Main@L4
Format settings : CABAC / 3 Ref Frames
Format settings, CABAC : Yes
Format settings, ReFrames : 3 frames
Codec ID : V_MPEG4/ISO/AVC
Duration : 2 h 12 min
Bit rate mode : Variable
Bit rate : 5 110 kb/s
Maximum bit rate : 7 665 kb/s
Width : 1 920 pixels
Height : 1 080 pixels
Display aspect ratio : 16:9
Frame rate mode : Constant
Frame rate : 24.000 FPS
Color space : YUV
Chroma subsampling : 4:2:0
Bit depth : 8 bits
Scan type : Progressive
Bits/(Pixel*Frame) : 0.103
Stream size : 4.69 GiB (86%)
Writing library : x264 core 148 r2715 7e75228
Encoding settings : cabac=1 / ref=3 / deblock=1:0:0 / analyse=0x1:0x111 / me=umh / subme=10 / psy=1 / psy_rd=1.00:0.00 / mixed_ref=1 / me_range=24 / chroma_me=1 / trellis=2 / 8x8dct=0 / cqm=0 / deadzone=21,11 / fast_pskip=1 / chroma_qp_offset=-2 / threads=8 / lookahead_threads=1 / sliced_threads=0 / nr=0 / decimate=1 / interlaced=0 / bluray_compat=0 / stitchable=1 / constrained_intra=0 / bframes=2 / b_pyramid=0 / b_adapt=2 / b_bias=0 / direct=3 / weightb=1 / open_gop=0 / weightp=2 / keyint=48 / keyint_min=25 / scenecut=0 / intra_refresh=0 / rc_lookahead=48 / rc=2pass / mbtree=1 / bitrate=5110 / ratetol=1.0 / qcomp=0.50 / qpmin=6 / qpmax=51 / qpstep=4 / cplxblur=20.0 / qblur=0.5 / vbv_maxrate=7665 / vbv_bufsize=10220 / nal_hrd=vbr / filler=0 / ip_ratio=1.40 / aq=1:1.00
Default : Yes
Forced : No

Audio #1
ID : 2
Format : AC-3
Format/Info : Audio Coding 3
Codec ID : A_AC3
Duration : 2 h 12 min
Bit rate mode : Constant
Bit rate : 384 kb/s
Channel(s) : 6 channels
Channel positions : Front: L C R, Side: L R, LFE
Sampling rate : 48.0 kHz
Frame rate : 31.250 FPS (1536 SPF)
Bit depth : 16 bits
Compression mode : Lossy
Stream size : 363 MiB (6%)
Title : DUB
Language : Russian
Service kind : Complete Main
Default : Yes
Forced : No

Audio #2
ID : 3
Format : E-AC-3
Format/Info : Enhanced Audio Coding 3
Format profile : E-AC-3+Atmos / E-AC-3
Codec ID : A_EAC3
Duration : 2 h 12 min
Bit rate mode : Constant
Bit rate : 448 kb/s
Channel(s) : 15 objects / 6 channels
Channel positions : 15 objects / Front: L C R, Side: L R, LFE
Sampling rate : 48.0 kHz
Frame rate : 187.500 FPS (256 SPF)
Compression mode : Lossy
Stream size : 424 MiB (8%)
Title : Original
Language : English
Service kind : Complete Main
Default : No
Forced : No

Text #1
ID : 4
Format : UTF-8
Codec ID : S_TEXT/UTF8
Codec ID/Info : UTF-8 Plain Text
Duration : 2 h 11 min
Bit rate : 2 b/s
Count of elements : 43
Stream size : 2.35 KiB (0%)
Title : Forced
Language : Russian
Default : Yes
Forced : Yes

Text #2
ID : 5
Format : UTF-8
Codec ID : S_TEXT/UTF8
Codec ID/Info : UTF-8 Plain Text
Duration : 2 h 11 min
Bit rate : 61 b/s
Count of elements : 1375
Stream size : 59.2 KiB (0%)
Title : Full
Language : Russian
Default : No
Forced : No

Text #3
ID : 6
Format : UTF-8
Codec ID : S_TEXT/UTF8
Codec ID/Info : UTF-8 Plain Text
Duration : 2 h 2 min
Bit rate : 49 b/s
Count of elements : 1455
Stream size : 44.8 KiB (0%)
Title : SDH
Language : English
Default : No
Forced : No
скриншот  скриншот  скриншот  
pb.wtf



Скачать Разбойники с большой дороги через торрент https://i4.imageban.ru/out/2019/03/26/f54c5ac4bd172f16a8f707e6599321d8.jpg Скачать фильм Разбойники с большой дороги через торрент бесплантно в хорошем качестве Описание: В 1930-е годы техасский рейнджер Фрэнк Хеймер получает задание поймать и обезвредить двух опасных грабителей банков. Вместе с ... 9.7 10 26
Info! Золотая раздача, скачанное не засчитывается.
Торрент: Зарегистрирован [2019-03-29 10:53] · скачан: 1 284 раз
Статус: √ проверено
Размер: 5.46 GB
Как cкачать? Как скачать Разбойники с большой дороги через торрент | qTorrent

% Раздел Тема Автор DL S | L
Ultra HD (UHD: 2K, 4K, 8K) — видео сверхвысокой чёткости [ 18.03 GB ] В погоне за Бонни и Клайдом / Разбойники с большой дороги / The Highwaymen [2019 UHD WEBRip 2160p] DUB + DVO + AVO sheker187 Скачать
1 | 0
Ultra HD (UHD: 2K, 4K, 8K) — видео сверхвысокой чёткости [ 24.66 GB ] В погоне за Бонни и Клайдом / Разбойники с большой дороги / The Highwaymen [2019 UHD WEBRip 2160p] [SDR] DUB [АРК-ТВ Studio и VSI International] + AVO [Ю. Немахов] sheker187 Скачать
1 | 0
Фильмы 2019-2020 [DVDrip, WEB-DLRip, HDrip] (DUB, MVO) [ 1.46 GB ] Разбойники с большой дороги / The Highwaymen [2019 WEB-DLRip] killermax2013 Скачать
2 | 0
Фильмы 2019-2020 [DVDrip, WEB-DLRip, HDrip] (DUB, MVO) [ 2.17 GB ] В погоне за Бонни и Клайдом / Разбойники с большой дороги / The Highwaymen [2019 WEB-DLRip-AVC] DUB [АРК-ТВ Studio & VSI International] bober100 Скачать
2 | 0
Фильмы (WEB-DL 720p, 1080p) [ 3.4 GB ] В погоне за Бонни и Клайдом / Разбойники с большой дороги / The Highwaymen [2019 WEB-DL 720p] DUB [АРК-ТВ Studio & VSI International] bober100 Скачать
2 | 0
Фильмы 2019-2020 [DVDrip, WEB-DLRip, HDrip] (DUB, MVO) [ 1.47 GB ] В погоне за Бонни и Клайдом / Разбойники с большой дороги / The Highwaymen [2019 WEB-DLRip ] Kuzich Скачать
2 | 0
Фильмы 2019-2020 [DVDrip, WEB-DLRip, HDrip] (DUB, MVO) [ 1.45 GB ] Разбойники с большой дороги / The Highwaymen [2019 WEB-DLRip-AVC] - ExKinoRay Enigma2010 Скачать
2 | 0

28-11-2019 20:33  

Отключить всю рекламу на сайте

    Дорогой пользователь! Огромная просьба, поблагодарите релизера, оцените раздачу и оставьте свои комментарий, если Вы скачали Разбойники с большой дороги через торрент бесплатно! Внесите свою лепту в развитие PiratBit!
    Комментировать посты могут только пользователи прошедшие не сложную регистрацию
    Показать сообщения:    

    Разбойники с большой дороги через торрент
    Скачать бесплатно Разбойники с большой дороги
    Разбойники с большой дороги скачать торрент
    Разбойники с большой дороги смотреть онлайн
    Cкачать фильм Разбойники с большой дороги бесплатно
    Разбойники с большой дороги скачать торрент в хорошем качестве
    Разбойники с большой дороги смотреть онлайн бесплатно в хорошем качестве


    Вы не можете начинать темы
    Вы не можете отвечать на сообщения
    Вы не можете редактировать свои сообщения
    Вы не можете удалять свои сообщения
    Вы не можете голосовать в опросах
    Вы не можете прикреплять файлы к сообщениям
    Вы можете скачивать файлы