Ссылка на приватное зеркало нашего сайта всего за 1$. Внимание количество ограничено!!!

2 сезон

iTunes

1 сезон

1

2 сезон

2 сезон

iTunes

1 сезон

RePack

30

Ultimate

ВАЖНО

ИГРА 18+

pack

RePack

MK11
pack

Забери бонус

RePack

jed

!!Акция!!

Alien_Rage

RePack

fifa19

RePack

Assassins Creed: Odyssey

RePack

NEED FOR SPEED™ PAYBACK

4 сезон

9 сезон

Бесстыжие 9 сезон

Все сериалы

все сериалы на PB.wtf

RePack

FAR CRY 5
  

Spirits Of Fire - Spirits Of Fire (Japanese Edition) - 2019/ FLAC/ image +.cue/ lossless/ Heavy Metal pb.wtf

Spirits Of Fire - Spirits Of Fire через торрент pb.wtf

Размер: 512 MB | Добавлен: 1 год 8 мес. назад | Торрент скачан:12 раз
Скачать  

29-03-2019 11:01 Spirits Of Fire - Spirits Of Fire Скачать торрент  


Spirits Of Fire - Spirits Of Fire (Japanese Edition)


Год издания: 2019
Страна: USA
Жанр: Heavy Metal
Продолжительность: 01:07:52
Лейбл издания: King Records Co.
Страна-выпуска диска: Japan
Номер по каталогу: KICP 1971
Формат: FLAC
Битрейт аудио: Lossless
Тип рипа: image +.cue
Наличие сканов в содержимом раздачи: да


01. Light Speed Marching (4:31)
02. Temple Of The Soul (6:24)
03. All Comes Together (5:46)
04. Spirits Of Fire (6:44)
05. It's Everywhere (5:24)
06. A Game (7:20)
07. Stand And Fight (3:55)
08. Meet Your End (5:09)
09. Never To Return (4:28)
10. The Path (7:17)
11. Alone In The Darkness (5:56)
12. It's Everywhere (Acoustic Version) (Bonus Track) (4:59)

Код:

Exact Audio Copy V1.3 from 2. September 2016

EAC extraction logfile from 1. March 2019, 21:38

Spirits Of Fire / Spirits Of Fire (Japan)

Used drive  : ATAPI   iHAS124   F   Adapter: 2  ID: 0

Read mode               : Secure
Utilize accurate stream : Yes
Defeat audio cache      : Yes
Make use of C2 pointers : No

Read offset correction                      : 6
Overread into Lead-In and Lead-Out          : No
Fill up missing offset samples with silence : Yes
Delete leading and trailing silent blocks   : No
Null samples used in CRC calculations       : Yes
Used interface                              : Installed external ASPI interface

Used output format              : User Defined Encoder
Selected bitrate                : 1024 kBit/s
Quality                         : High
Add ID3 tag                     : No
Command line compressor         : C:\Program Files\FLAC\flac.exe
Additional command line options : -V -8 -T "Date=%year%" -T "Genre=%genre%" -T"COMMENT=Ripped by  Ilijan" -8 -V %source%

TOC of the extracted CD

     Track |   Start  |  Length  | Start sector | End sector
    ---------------------------------------------------------
        1  |  0:00.00 |  4:30.61 |         0    |    20310
        2  |  4:30.61 |  6:24.15 |     20311    |    49125
        3  | 10:55.01 |  5:46.02 |     49126    |    75077
        4  | 16:41.03 |  6:43.57 |     75078    |   105359
        5  | 23:24.60 |  5:23.48 |    105360    |   129632
        6  | 28:48.33 |  7:19.64 |    129633    |   162621
        7  | 36:08.22 |  3:54.43 |    162622    |   180214
        8  | 40:02.65 |  5:08.74 |    180215    |   203388
        9  | 45:11.64 |  4:28.31 |    203389    |   223519
       10  | 49:40.20 |  7:16.67 |    223520    |   256286
       11  | 56:57.12 |  5:55.63 |    256287    |   282974
       12  | 62:53.00 |  4:59.37 |    282975    |   305436

Range status and errors

Selected range

     Filename D:\Vknish\ Spirits Of Fire - Spirits Of Fire (Japan).wav

     Peak level 96.4 %
     Extraction speed 9.3 X
     Range quality 100.0 %
     Test CRC CAE1AB1A
     Copy CRC CAE1AB1A
     Copy OK

No errors occurred


AccurateRip summary

Track  1  not present in database
Track  2  not present in database
Track  3  not present in database
Track  4  not present in database
Track  5  not present in database
Track  6  not present in database
Track  7  not present in database
Track  8  not present in database
Track  9  not present in database
Track 10  not present in database
Track 11  not present in database
Track 12  not present in database

None of the tracks are present in the AccurateRip database

End of status report

Код:

REM GENRE "Heavy Metal"
REM DATE 2019
REM DISCID 960FE80C
REM COMMENT "ExactAudioCopy v1.3"
PERFORMER "Spirits Of Fire"
TITLE "Spirits Of Fire (Japan)"
FILE "Spirits Of Fire - Spirits Of Fire (Japan).flac" WAVE
  TRACK 01 AUDIO
    TITLE "Light Speed Marching"
    PERFORMER "Spirits Of Fire"
    INDEX 01 00:00:00
  TRACK 02 AUDIO
    TITLE "Temple Of The Soul"
    PERFORMER "Spirits Of Fire"
    INDEX 01 04:30:61
  TRACK 03 AUDIO
    TITLE "All Comes Together"
    PERFORMER "Spirits Of Fire"
    INDEX 01 10:55:01
  TRACK 04 AUDIO
    TITLE "Spirits Of Fire"
    PERFORMER "Spirits Of Fire"
    INDEX 01 16:41:03
  TRACK 05 AUDIO
    TITLE "It's Everywhere"
    PERFORMER "Spirits Of Fire"
    INDEX 01 23:24:60
  TRACK 06 AUDIO
    TITLE "A Game"
    PERFORMER "Spirits Of Fire"
    INDEX 01 28:48:33
  TRACK 07 AUDIO
    TITLE "Stand And Fight"
    PERFORMER "Spirits Of Fire"
    INDEX 01 36:08:22
  TRACK 08 AUDIO
    TITLE "Meet Your End"
    PERFORMER "Spirits Of Fire"
    INDEX 01 40:02:65
  TRACK 09 AUDIO
    TITLE "Never To Return"
    PERFORMER "Spirits Of Fire"
    INDEX 01 45:11:64
  TRACK 10 AUDIO
    TITLE "The Path"
    PERFORMER "Spirits Of Fire"
    INDEX 01 49:40:20
  TRACK 11 AUDIO
    TITLE "Alone In The Darkness"
    PERFORMER "Spirits Of Fire"
    INDEX 01 56:57:12
  TRACK 12 AUDIO
    TITLE "It's Everywhere (Acoustic Version) (Bonus Track)"
    PERFORMER "Spirits Of Fire"
    INDEX 00 62:51:23
    INDEX 01 62:53:00





Supergroup Line Up:

Tim Owens (ex-Judas Priest, ex-Iced Earth) – Lead and Background Vocals
Chris Caffery (Savatage, Trans-Siberian Orchestra) – Lead, Rhythm and acoustic guitars, Background vocals
Steve DiGiorgio (Testament, Death, etc.) – Bass Guitars
Mark Zonder (ex-Fates Warning, Warlord) – Drums


pb.wtf



Скачать Spirits Of Fire - Spirits Of Fire через торрент http://d.radikal.ru/d43/1903/d3/16a5eab7f967.png Скачать фильм Spirits Of Fire - Spirits Of Fire через торрент бесплантно в хорошем качестве Трэклист Light Speed Marching (4:31) Temple Of The Soul (6:24) All Comes Together (5:46) Spirits Of Fire (6:44) ... 7 10 2
Торрент: Зарегистрирован [2019-03-29 11:01] · скачан: 12 раз
Статус: √ проверено
Размер: 512 MB
Как cкачать? Как скачать Spirits Of Fire - Spirits Of Fire через торрент | qTorrent

28-11-2019 20:33  

Отключить всю рекламу на сайте

    Дорогой пользователь! Огромная просьба, поблагодарите релизера, оцените раздачу и оставьте свои комментарий, если Вы скачали Spirits Of Fire - Spirits Of Fire через торрент бесплатно! Внесите свою лепту в развитие PiratBit!
    Комментировать посты могут только пользователи прошедшие не сложную регистрацию
    Показать сообщения:    

    Spirits Of Fire - Spirits Of Fire через торрент
    Скачать бесплатно Spirits Of Fire - Spirits Of Fire
    Spirits Of Fire - Spirits Of Fire скачать торрент
    Spirits Of Fire - Spirits Of Fire смотреть онлайн
    Cкачать фильм Spirits Of Fire - Spirits Of Fire бесплатно
    Spirits Of Fire - Spirits Of Fire скачать торрент в хорошем качестве
    Spirits Of Fire - Spirits Of Fire смотреть онлайн бесплатно в хорошем качестве


    Вы не можете начинать темы
    Вы не можете отвечать на сообщения
    Вы не можете редактировать свои сообщения
    Вы не можете удалять свои сообщения
    Вы не можете голосовать в опросах
    Вы не можете прикреплять файлы к сообщениям
    Вы можете скачивать файлы