новый адрес
Ссылка на приватное зеркало всего за 1$. Внимание количество ограничено!!!

iTunes

1+1

iTunes

мы

iTunes

1

iTunes

Чернобыль

iTunes

Ральф против интернета

Лицензия

ПШазам

Лицензия

Оно 2

Лицензия

30
pack

Вам бонус

ВАЖНО

!!Акция!!

Alien_RageХит недели

RePack

Resident Evil 21

ИГРА 18+

pack

RePack

jed

!!Акция!!

Alien_Rage

RePack

fifa19

RePack

Assassins Creed: Odyssey

RePack

NEED FOR SPEED™ PAYBACK

3 сезон

9 сезон

Бесстыжие 9 сезон

Все сериалы

все сериалы на PB.wtf

RePack

FAR CRY 5
Ребята, катастрофически не хватает 1900р. для оплаты серверов за Октябрь (всвязи с блокировками трафик упал в 3 раза), 1-2р., выручайте.
  

Разбойники с большой дороги / The Highwaymen (Джон Ли Хэнкок) [2019, триллер, драма, криминал, детектив, WEB-DLRip-AVC] [DUB] (АРК-ТВ Studio) - ExKinoRay pb.wtf

Разбойники с большой дороги через торрент pb.wtf

Раздают: 7 [ 14 KB/s ]
Размер: 1.45 GB | Добавлен: 8 мес. назад | Торрент скачан:1205 раз
Скачать  

30-03-2019 02:34 Разбойники с большой дороги Скачать торрент  

Информация о фильме
Название: Разбойники с большой дороги
Оригинальное название: The Highwaymen
Год выпуска: 2019
Жанр: Триллер, драма, криминал, детектив
Режиссер: Джон Ли Хэнкок
В ролях: Кевин Костнер, Вуди Харрельсон, Ким Диккенс, Кэти Бэйтс, Томас Манн, Джон Кэрролл Линч, У. Эрл Браун, Дэвид Фурр, Эмили Бробст

Описание: В 1930-е годы техасский рейнджер Фрэнк Хеймер получает задание поймать и обезвредить двух опасных грабителей банков. Вместе с напарником Мэнни Голтом он возглавляет охоту за парочкой молодых неуловимых преступников, которых зовут Бонни и Клайд.

rating

Страна: США
Студия: Universal Pictures, Casey Silver Productions, Media Rights Capital (MRC), Netflix
Продолжительность: 02:12:00
Перевод: Дублированный | АРК-ТВ Studio & VSI International по заказу Netflix
Субтитры: Pусские (форс., полные), английские (SDH)

БЕЗ КАКОЙ-ЛИБО РЕКЛАМЫ!

Формат: MKV
Качество: WEB-DLRip-AVC
Видео: MPEG-4 AVC, 720x300 (2.40:1), 24.000 fps, 1184 Kbps, 0.228 bit/pixel
Аудио: 48 kHz, AC3, 5.1, 384 Kbps | RUS |
General
Unique ID : 221530453026193963997565101866717114472 (0xA6A9369B550CD8B5913D2E83E8E97068)
Complete name : D:\Разбойники с большой дороги. 2019. DUB.WEB-DLRip.AVC.ExKinoRay (1).mkv
Format : Matroska
Format version : Version 2
File size : 1.45 GiB
Duration : 2 h 12 min
Overall bit rate : 1 569 kb/s
Movie name : The Highwaymen (2019) from ExKinoRay
Encoded date : UTC 2019-03-30 02:12:58
Writing application : mkvmerge v5.6.0 ('Kenya Kane') built on May 27 2012 16:44:04
Writing library : libebml v1.2.3 + libmatroska v1.3.0
Attachments : front.png

Video
ID : 1
Format : AVC
Format/Info : Advanced Video Codec
Format profile : High@L4.1
Format settings, CABAC : Yes
Format settings, ReFrames : 10 frames
Codec ID : V_MPEG4/ISO/AVC
Duration : 2 h 12 min
Bit rate : 1 184 kb/s
Width : 720 pixels
Height : 300 pixels
Display aspect ratio : 2.40:1
Frame rate mode : Constant
Frame rate : 24.000 FPS
Color space : YUV
Chroma subsampling : 4:2:0
Bit depth : 8 bits
Scan type : Progressive
Bits/(Pixel*Frame) : 0.228
Stream size : 1.07 GiB (74%)
Title : Enigma
Writing library : x264 core 152 r2851 ba24899
Encoding settings : cabac=1 / ref=10 / deblock=1:-2:-2 / analyse=0x3:0x113 / me=umh / subme=10 / psy=1 / psy_rd=1.05:0.10 / mixed_ref=1 / me_range=32 / chroma_me=1 / trellis=2 / 8x8dct=1 / cqm=0 / deadzone=21,11 / fast_pskip=0 / chroma_qp_offset=-3 / threads=9 / lookahead_threads=2 / sliced_threads=0 / nr=0 / decimate=0 / interlaced=0 / bluray_compat=0 / constrained_intra=0 / bframes=10 / b_pyramid=2 / b_adapt=2 / b_bias=0 / direct=3 / weightb=1 / open_gop=0 / weightp=2 / keyint=240 / keyint_min=24 / scenecut=40 / intra_refresh=0 / rc_lookahead=40 / rc=2pass / mbtree=1 / bitrate=1184 / ratetol=1.0 / qcomp=0.60 / qpmin=0 / qpmax=51 / qpstep=4 / cplxblur=20.0 / qblur=0.5 / ip_ratio=1.30 / aq=2:0.90
Default : Yes
Forced : No
Color range : Limited
Color primaries : BT.709
Transfer characteristics : BT.709
Matrix coefficients : BT.709

Audio
ID : 2
Format : AC-3
Format/Info : Audio Coding 3
Mode extension : CM (complete main)
Format settings, Endianness : Big
Codec ID : A_AC3
Duration : 2 h 12 min
Bit rate mode : Constant
Bit rate : 384 kb/s
Channel(s) : 6 channels
Channel positions : Front: L C R, Side: L R, LFE
Sampling rate : 48.0 kHz
Frame rate : 31.250 FPS (1536 spf)
Compression mode : Lossy
Stream size : 363 MiB (24%)
Title : Dub
Language : Russian
Default : Yes
Forced : No

Text #1
ID : 3
Format : UTF-8
Codec ID : S_TEXT/UTF8
Codec ID/Info : UTF-8 Plain Text
Title : Forced
Language : Russian
Default : Yes
Forced : No

Text #2
ID : 4
Format : UTF-8
Codec ID : S_TEXT/UTF8
Codec ID/Info : UTF-8 Plain Text
Language : Russian
Default : No
Forced : No

Text #3
ID : 5
Format : UTF-8
Codec ID : S_TEXT/UTF8
Codec ID/Info : UTF-8 Plain Text
Language : English
Default : No
Forced : No
Релиз от:

Автор релиза:

За исходник спасибо EniaHDpb.wtf



Скачать Разбойники с большой дороги через торрент https://b.radikal.ru/b04/1903/0a/a0db3770bb4a.png Скачать фильм Разбойники с большой дороги через торрент бесплантно в хорошем качестве Описание: В 1930-е годы техасский рейнджер Фрэнк Хеймер получает задание поймать и обезвредить двух опасных грабителей банков. Вместе с ... 10 10 20
Info! Золотая раздача, скачанное не засчитывается.
Торрент: Зарегистрирован [2019-03-30 02:34] · скачан: 1 205 раз
Статус: √ проверено
Размер: 1.45 GB
Как cкачать? Как скачать Разбойники с большой дороги через торрент | qTorrent

28-11-2019 20:33  

Отключить всю рекламу на сайте

30-03-2019 15:47 Разбойники с большой дороги Скачать торрент  

Такие мастодонты в фильме, а комментов нет...pb.wtf



    Дорогой пользователь! Огромная просьба, поблагодарите релизера, оцените раздачу и оставьте свои комментарий, если Вы скачали Разбойники с большой дороги через торрент бесплатно! Внесите свою лепту в развитие PiratBit!
    Комментировать посты могут только пользователи прошедшие не сложную регистрацию
    Показать сообщения:    

    Разбойники с большой дороги через торрент
    Скачать бесплатно Разбойники с большой дороги
    Разбойники с большой дороги скачать торрент
    Разбойники с большой дороги смотреть онлайн
    Cкачать фильм Разбойники с большой дороги бесплатно
    Разбойники с большой дороги скачать торрент в хорошем качестве
    Разбойники с большой дороги смотреть онлайн бесплатно в хорошем качестве


    Вы не можете начинать темы
    Вы не можете отвечать на сообщения
    Вы не можете редактировать свои сообщения
    Вы не можете удалять свои сообщения
    Вы не можете голосовать в опросах
    Вы не можете прикреплять файлы к сообщениям
    Вы можете скачивать файлы