Всегда рабочее зеркало просто перед .vidak.icu напиши любое слово или цифру, Пример http://eaa.vidak.icu

>

7.4

iTunes

7.4

2 сезон

9.4

1 сезон

1

7.4

2 сезон

7.2

iTunes

6.0

MVO

13

6.1

iTunes

8.3

Пиратка

30

ULTIMATE

pack

9.9

Лицензия

ВАЖНО

ИГРА 18+

pack

7.3

RePack

MK11

7.7

RePack

jed

7.8

RePack

fifa19

8.5

RePack

RDR2

RePack

NEED FOR SPEED™ PAYBACK

1 сезон

9 сезон

Бесстыжие 9 сезон

Все сериалы

все сериалы на PB.wtf

RePack

FAR CRY 5

Anonymous, доброй ночи, мы катастрофически не успеваем собрать деньги на оплату серверов, помогите нам пожалуйста 5,10,15р., для нас важна любая помощь . В качестве благодарности мы отключим Вам всю рекламу на сайте (укажите свой ник в строку Ваше имя)!

×
  
Magnet ссылка

Аппассионата / Appassionata (Джанлуиджи Кальдероне) [1974 г., драма, эротика, Blu-Ray Remux 1080p] AVO (Владимир Штейн) pb.wtf

Аппассионата через торрент pb.wtf

Размер: 23.51 GB | Добавлен: 2 года 9 мес. назад | Торрент скачан:24 раза
Смотреть онлайн Аппассионата | Скачать    Ребята, помогите собрать деньги на оплату серверов!!!

30-03-2019 04:47 Аппассионата Скачать торрент  

Аппассионата / Appassionata
Год выпуска: 1974
Страна: Италия

Жанр: Драма, эротика

Продолжительность: 01:38:34

Перевод: Авторский (одноголосый) - Владимир Штейн

Субтитры: Английские

Режиссер: Джанлуиджи Кальдероне

rating

В ролях: Орнелла Мути, Валентина Кортезе, Элеонора Джорджи, Нинетто Даволе, Габриэле Ферцетти, Рената Заменго

Описание: Семья Рутелли, на первый взгляд, производит впечатление обычной благополучной римской семьи. Эмилио Рутелли - известный врач-стоматолог, его жена Элиза - талантливая пианистка, у них красавица-дочь, шестнадцатилетняя Эуджения. Но не всё в семье складывается так просто. Элиза постоянно подвержена нервным срывам на грани безумия. Дочь ненавидит мать и страстно любит отца, явно не дочерней любовью. Когда у Эмилио завязываются интимные отношения с одноклассницей Эуджении, Николой, в голове у дочери возникает план...
Качество: Blu-Ray Remux 1080p
Формат: MKV
Видео кодек: MPEG-4 AVC
Аудио кодек: AC3, DTS
Видео: MPEG-4 AVC, 29984 Кбит/с, 1920x1090
Аудио#1: Русский, AC3, 2 ch, 192 Кбит/с
Аудио#2: Итальянский, DTS, 2 ch, 2044 Кбит/сек
Аудио#3: Английский, DTS, 2 ch, 2044 Кбит/сек
Видео
Идентификатор : 1
Формат : AVC
Формат/Информация : Advanced Video Codec
Профиль формата : High@L4.1
Настройки формата : CABAC / 4 Ref Frames
Параметр CABAC формата : Да
Параметр RefFrames формата : 4 кадра
Идентификатор кодека : V_MPEG4/ISO/AVC
Продолжительность : 1 ч. 38 м.
Вид битрейта : Переменный
Битрейт : 29,9 Мбит/сек
Максимальный битрейт : 35,0 Мбит/сек
Ширина : 1920 пикселей
Высота : 1080 пикселей
Соотношение сторон : 16:9
Режим частоты кадров : Постоянный
Частота кадров : 23,976 (24000/1001) кадра/сек
Цветовое пространство : YUV
Субдискретизация насыщенности : 4:2:0
Битовая глубина : 8 бит
Тип развёртки : Прогрессивная
Бит/(Пиксели*Кадры) : 0.601
Размер потока : 20,6 Гбайт (87%)
Заголовок : MPEG-4 AVC Video / 29984 kbps / 1080p / 23.976 fps / 16:9 / High Profile 4.1
Язык : Italian
Default : Да
Forced : Нет

Аудио #1
Идентификатор : 2
Формат : AC-3
Формат/Информация : Audio Coding 3
Коммерческое название : Dolby Digital
Идентификатор кодека : A_AC3
Продолжительность : 1 ч. 38 м.
Вид битрейта : Постоянный
Битрейт : 192 Кбит/сек
Каналы : 2 канала
Channel layout : L R
Частота : 48,0 КГц
Частота кадров : 31,250 кадров/сек (1536 SPF)
Битовая глубина : 16 бит
Метод сжатия : С потерями
Размер потока : 135 Мбайт (1%)
Заголовок : AC-3 / 2.0 / 48 kHz /192 kbps / 16-bit
Язык : Russian
ServiceKind/String : Complete Main
Default : Да
Forced : Нет

Аудио #2
Идентификатор : 3
Формат : DTS XLL
Формат/Информация : Digital Theater Systems
Коммерческое название : DTS-HD Master Audio
Идентификатор кодека : A_DTS
Продолжительность : 1 ч. 38 м.
Вид битрейта : Переменный
Битрейт : 2044 Кбит/сек
Каналы : 2 канала
Channel layout : L R
Частота : 48,0 КГц
Частота кадров : 93,750 кадра/сек (512 SPF)
Битовая глубина : 24 бит
Метод сжатия : Без потерь
Размер потока : 1,41 Гбайт (6%)
Заголовок : DTS-HD Master Audio / 2.0 / 48 kHz / 2044 kbps / 24-bit
Язык : Italian
Default : Нет
Forced : Нет

Аудио #3
Идентификатор : 4
Формат : DTS XLL
Формат/Информация : Digital Theater Systems
Коммерческое название : DTS-HD Master Audio
Идентификатор кодека : A_DTS
Продолжительность : 1 ч. 38 м.
Вид битрейта : Переменный
Битрейт : 2044 Кбит/сек
Каналы : 2 канала
Channel layout : L R
Частота : 48,0 КГц
Частота кадров : 93,750 кадра/сек (512 SPF)
Битовая глубина : 24 бит
Метод сжатия : Без потерь
Размер потока : 1,41 Гбайт (6%)
Заголовок : Dub / DTS-HD Master Audio / 2.0 / 48 kHz / 2044 kbps / 24-bit
Язык : English
Default : Нет
Forced : Нет

Текст
Идентификатор : 5
Формат : PGS
Режим смешивания : zlib
Идентификатор кодека : S_HDMV/PGS
Идентификатор кодека/Информация : Picture based subtitle format used on BDs/HD-DVDs
Продолжительность : 1 ч. 30 м.
Битрейт : 30,3 Кбит/сек
ElementCount : 1804
Размер потока : 19,5 Мбайт (0%)
Язык : English
Default : Нет
Forced : Нет

Меню
00:00:00.000 : en:Chapter 1
00:04:26.057 : en:Chapter 2
00:07:55.016 : en:Chapter 3
00:10:12.028 : en:Chapter 4
00:17:45.273 : en:Chapter 5
00:21:07.975 : en:Chapter 6
00:25:49.715 : en:Chapter 7
00:30:37.044 : en:Chapter 8
00:35:29.586 : en:Chapter 9
00:38:59.963 : en:Chapter 10
00:42:47.774 : en:Chapter 11
00:45:56.504 : en:Chapter 12
00:50:33.072 : en:Chapter 13
00:53:12.773 : en:Chapter 14
00:59:31.777 : en:Chapter 15
01:04:05.133 : en:Chapter 16
01:08:31.983 : en:Chapter 17
01:12:21.087 : en:Chapter 18
01:15:21.517 : en:Chapter 19
01:19:12.456 : en:Chapter 20
01:23:21.038 : en:Chapter 21
01:29:18.270 : en:Chapter 22
01:31:40.870 : en:Chapter 23
01:36:56.894 : en:Chapter 24

скриншот   скриншот   скриншот   скриншот  

pb.wtf



Скачать Аппассионата через торрент https://pic1.kartinco.top/images/12/zm6u3.jpg Скачать, смотреть онлайн Аппассионата бесплантно в хорошем качестве Описание: Семья Рутелли, на первый взгляд, производит впечатление обычной благополучной римской семьи. Эмилио Рутелли - известный ... 7 10 1
Info! Золотая раздача, скачанное не засчитывается.
Торрент: Зарегистрирован [2019-03-30 04:47] · скачан: 24 раз
Статус: √ проверено
Размер: 23.51 GB
Как cкачать? Как скачать Аппассионата через торрент | UTorrent

% Раздел Тема Автор DL S | L
Фильмы с авторской озвучкой [ 11.88 GB ] Аппассионата / Appassionata [1974 BDRip 1080p by msltel] AVO msltel Скачать
1 | 0
Фильмы с авторской озвучкой [ 4.29 GB ] Аппассионата / Appassionata [1974 BDRip 720p by msltel] AVO msltel Скачать
1 | 0

28-11-2019 20:33  

Отключить всю рекламу на сайте

    Дорогой пользователь! Огромная просьба, поблагодарите релизера, оцените раздачу и оставьте свои комментарий, если Вы скачали Аппассионата через торрент бесплатно!
    Комментировать посты могут только пользователи прошедшие не сложную регистрацию
    Показать сообщения:    

    Аппассионата через торрент
    Скачать бесплатно Аппассионата
    Аппассионата скачать торрент
    Аппассионата смотреть онлайн
    Cкачать фильм Аппассионата бесплатно
    Аппассионата скачать торрент в хорошем качестве
    Аппассионата смотреть онлайн бесплатно в хорошем качестве


    Вы не можете начинать темы
    Вы не можете отвечать на сообщения
    Вы не можете редактировать свои сообщения
    Вы не можете удалять свои сообщения
    Вы не можете голосовать в опросах
    Вы не можете прикреплять файлы к сообщениям
    Вы можете скачивать файлы