новый адрес
Ссылка на приватное зеркало всего за 1$. Внимание количество ограничено!!!

iTunes

1+1

iTunes

мы

WEB-DL

1

iTunes

Чернобыль

iTunes

Ральф против интернета

Лицензия

ПШазам

Лицензия

Оно 2

Лицензия

30
pack

Вам бонус

ВАЖНО

!!Акция!!

Alien_RageХит недели

RePack

Resident Evil 21

ИГРА 18+

pack

RePack

jed

!!Акция!!

Alien_Rage

RePack

fifa19

RePack

Assassins Creed: Odyssey

RePack

NEED FOR SPEED™ PAYBACK

3 сезон

9 сезон

Бесстыжие 9 сезон

Все сериалы

все сериалы на PB.wtf

RePack

FAR CRY 5
Ребята, катастрофически не хватает 1900р. для оплаты серверов за Октябрь (всвязи с блокировками трафик упал в 3 раза), 1-2р., выручайте.
  

Доктор Кто. Тёмная вода + Смерть в раю в 3Д / Doctor Who. Dark Water + Death in Heaven 3D (Рейчел Тэлалей / Rachel Talalay) [2014, фантастика, приключения, драма, комедия, BDRip, 1080p] OverUnder / Вертикальная стереопара (MVO) pb.wtf

Доктор Кто. Тёмная вода + Смерть в раю в 3Д через торрент pb.wtf

Раздают: 1 [ 0 KB/s ]
Размер: 24.74 GB | Добавлен: 8 мес. назад | Торрент скачан:15 раз
Скачать  

30-03-2019 07:52 Доктор Кто. Тёмная вода + Смерть в раю в 3Д Скачать торрент  

Доктор Кто. Тёмная вода + Смерть в раю / Doctor Who. Dark Water + Death in Heaven
S08E11+S08E12
Год выпуска: 2014
Страна: Великобритания (BBC)
Жанр: фантастика, приключения, драма, комедия
Продолжительность: 01:44:56

Перевод: Любительский (Baibako) и Профессиональный (Jaskier) многоголосые закадровые
Русские субтитры: нет
Режиссер: Рейчел Тэлалей / Rachel Talalay

В ролях: Питер Капальди, Дженна Коулман, Мишель Гомес, Сэмюэл Андерсон, Джемма Редгрейв, Крис Эддисон, Эндрю Люн, Санджив Бхаскар

Описание: Загадочный мир под названием «Нетерсфера». План тщательно отработан. Старые друзья и старые враги плетут интриги вокруг Доктора, и перед ним возникла невозможная дилемма. "Смерть - ещё не конец", обещала зловещая организация под названием 3W, но, может быть, по ходу расследования, Доктору и Кларе захочется, чтобы это было не так.

Сэмпл: http://sendfile.su/1485306

Качество: BDrip, 1080p
Контейнер: MKV
Формат 3D: OverUnder / Вертикальная стереопара
Порядок ракурсов: левый ракурс первый
Видео кодек: x264
Аудио кодек: AC3
Видео: AVC / High@L5.0 / 23,976 fps / 1920х2160 / 31,3 Мбит/сек
Аудио: Русский / AC3 / 48 KHz / 5.1 ch / 640 Кбит/сек (MVO - Baibako) (редакция Ash61)
Аудио 2: Русский / AC3 / 48 KHz / 5.1 ch / 384 Кбит/сек (MVO - Jaskier) (редакция Ash61)
Аудио 3: Английский / AC3 / 48 KHz / 5.1 ch / 640 Кбит/сек

ВНИМАНИЕ ! На встроенных ТВ-плеерах работать не будет!!!

ТВ Samsung в названии которого есть надпись Ultra HD , и LG Ultra HD 800 серии, LG C6P, Xiaomi Mi TV 2 воспроизводят полные стереопары встроенными плеерами
Железные плееры на которых воспроизводятся полные стереопары:Popcorn C-200 , Dune HD Smart D1 , Dune HD DUO , Dune HD Smart H1 , Dune HD Smart B1 , Dune HD Max , Dune HD TV-303D, Dune HD TV-102, Dune HD Base 3D, Philips HMP7001, Aura HD, MECOOL BB2
Чтобы изображение было на весь экран в плеере выставляем, если рип 1920х1600 - то выставляем 2.35:1 , если 1920х2160 - то выставляем 16:9
Общее
Уникальный идентификатор : 253691074086756936928831798740926931882 (0xBEDB1FA59BEF210793B6C1FAE51123AA)
Полное имя : E:\фильмы\Doctor Who. Dark Water + Death in Heaven.Rip by SeRoGa00.mkv
Формат : Matroska
Версия формата : Version 2
Размер файла : 24,7 Гбайт
Продолжительность : 1 ч. 45 м.
Общий поток : 33,7 Мбит/сек
Дата кодирования : UTC 2019-03-30 07:00:04
Программа кодирования : mkvmerge v3.4.0 ('Rapunzel') сборка от May 15 2010 09:38:20
Библиотека кодирования : libebml v0.8.0 + libmatroska v0.9.0

Видео
Идентификатор : 1
Формат : AVC
Формат/Информация : Advanced Video Codec
Профиль формата : High@L5.0
Параметр CABAC формата : Да
Параметр ReFrames формата : 4 кадра
Идентификатор кодека : V_MPEG4/ISO/AVC
Продолжительность : 1 ч. 45 м.
Битрейт : 31,3 Мбит/сек
Ширина : 1920 пикселей
Высота : 2160 пикселей
Соотношение сторон : 0,889
Частота кадров : 23,976 кадра/сек
Цветовое пространство : YUV
Субдискретизация насыщенности : 4:2:0
Битовая глубина : 8 бит
Тип развёртки : Прогрессивная
Бит/(Пиксели*Кадры) : 0.315
Размер потока : 23,0 Гбайт (93%)
Заголовок : Rip by SeRoGa00
Библиотека кодирования : x264 core 155 r2901 7d0ff22
Настройки программы : cabac=1 / ref=4 / deblock=1:-3:-3 / analyse=0x3:0x113 / me=umh / subme=10 / psy=1 / psy_rd=1.00:0.15 / mixed_ref=1 / me_range=24 / chroma_me=1 / trellis=2 / 8x8dct=1 / cqm=0 / deadzone=21,11 / fast_pskip=1 / chroma_qp_offset=-3 / threads=18 / lookahead_threads=6 / sliced_threads=0 / nr=0 / decimate=0 / interlaced=0 / bluray_compat=0 / constrained_intra=0 / bframes=10 / b_pyramid=2 / b_adapt=2 / b_bias=0 / direct=3 / weightb=1 / open_gop=0 / weightp=2 / keyint=250 / keyint_min=23 / scenecut=40 / intra_refresh=0 / rc_lookahead=60 / rc=crf / mbtree=1 / crf=16.5 / qcomp=0.60 / qpmin=10 / qpmax=69 / qpstep=4 / vbv_maxrate=40000 / vbv_bufsize=40000 / crf_max=0.0 / nal_hrd=none / filler=0 / ip_ratio=1.40 / aq=1:1.00
Язык : English
Default : Нет
Forced : Нет

Аудио #1
Идентификатор : 2
Формат : AC-3
Формат/Информация : Audio Coding 3
Расширение режима : CM (complete main)
Параметр Endianness формата : Big
Идентификатор кодека : A_AC3
Продолжительность : 1 ч. 45 м.
Вид битрейта : Постоянный
Битрейт : 640 Кбит/сек
Каналы : 6 каналов
Расположение каналов : Front: L C R, Side: L R, LFE
Частота : 48,0 КГц
Битовая глубина : 16 бит
Метод сжатия : С потерями
Размер потока : 482 Мбайт (2%)
Заголовок : MVO - Baibako
Язык : Russian
Default : Да
Forced : Нет

Аудио #2
Идентификатор : 3
Формат : AC-3
Формат/Информация : Audio Coding 3
Расширение режима : CM (complete main)
Параметр Endianness формата : Big
Идентификатор кодека : A_AC3
Продолжительность : 1 ч. 45 м.
Вид битрейта : Постоянный
Битрейт : 384 Кбит/сек
Каналы : 6 каналов
Расположение каналов : Front: L C R, Side: L R, LFE
Частота : 48,0 КГц
Битовая глубина : 16 бит
Метод сжатия : С потерями
Размер потока : 289 Мбайт (1%)
Заголовок : MVO - Jaskier
Язык : Russian
Default : Нет
Forced : Нет

Аудио #3
Идентификатор : 4
Формат : AC-3
Формат/Информация : Audio Coding 3
Расширение режима : CM (complete main)
Параметр Endianness формата : Big
Идентификатор кодека : A_AC3
Продолжительность : 1 ч. 45 м.
Вид битрейта : Постоянный
Битрейт : 640 Кбит/сек
Каналы : 6 каналов
Расположение каналов : Front: L C R, Side: L R, LFE
Частота : 48,0 КГц
Битовая глубина : 16 бит
Метод сжатия : С потерями
Размер потока : 482 Мбайт (2%)
Язык : English
Default : Нет
Forced : Нет

Меню
00:00:00.000 : :1
00:05:20.779 : :2
00:06:02.737 : :3
00:13:01.990 : :4
00:20:10.251 : :5
00:29:49.579 : :6
00:36:12.003 : :7
00:42:57.992 : :8
00:52:25.768 : :9
01:01:06.663 : :10
01:07:58.658 : :11
01:12:50.324 : :12
01:21:42.940 : :13
01:30:33.053 : :14
01:37:10.450 : :15
01:44:24.383 : :16
скриншот  

скриншот  

скриншот  

скриншот  

скриншот  

скриншот  
pb.wtf



Скачать Доктор Кто. Тёмная вода + Смерть в раю в 3Д через торрент https://b.radikal.ru/b08/1903/2e/67ddec62c089.png Скачать фильм Доктор Кто. Тёмная вода + Смерть в раю в 3Д через торрент бесплантно в хорошем качестве Описание: Загадочный мир под названием «Нетерсфера». План тщательно отработан. Старые друзья и старые враги плетут интриги вокруг Доктора, ... 5 10 1
Торрент: Зарегистрирован [2019-03-30 07:52] · скачан: 15 раз
Статус: √ проверено
Размер: 24.74 GB
Как cкачать? Как скачать Доктор Кто. Тёмная вода + Смерть в раю в 3Д через торрент | qTorrent

28-11-2019 20:33  

Отключить всю рекламу на сайте

    Дорогой пользователь! Огромная просьба, поблагодарите релизера, оцените раздачу и оставьте свои комментарий, если Вы скачали Доктор Кто. Тёмная вода + Смерть в раю в 3Д через торрент бесплатно! Внесите свою лепту в развитие PiratBit!
    Комментировать посты могут только пользователи прошедшие не сложную регистрацию
    Показать сообщения:    

    Доктор Кто. Тёмная вода + Смерть в раю в 3Д через торрент
    Скачать бесплатно Доктор Кто. Тёмная вода + Смерть в раю в 3Д
    Доктор Кто. Тёмная вода + Смерть в раю в 3Д скачать торрент
    Доктор Кто. Тёмная вода + Смерть в раю в 3Д смотреть онлайн
    Cкачать фильм Доктор Кто. Тёмная вода + Смерть в раю в 3Д бесплатно
    Доктор Кто. Тёмная вода + Смерть в раю в 3Д скачать торрент в хорошем качестве
    Доктор Кто. Тёмная вода + Смерть в раю в 3Д смотреть онлайн бесплатно в хорошем качестве


    Вы не можете начинать темы
    Вы не можете отвечать на сообщения
    Вы не можете редактировать свои сообщения
    Вы не можете удалять свои сообщения
    Вы не можете голосовать в опросах
    Вы не можете прикреплять файлы к сообщениям
    Вы можете скачивать файлы