Ссылка на приватное зеркало нашего сайта всего за 1$. Внимание количество ограничено!!!

2 сезон

iTunes

1 сезон

1

2 сезон

2 сезон

iTunes

1 сезон

RePack

30

Ultimate

ВАЖНО

ИГРА 18+

pack

RePack

MK11
pack

Забери бонус

RePack

jed

!!Акция!!

Alien_Rage

RePack

fifa19

RePack

Assassins Creed: Odyssey

RePack

NEED FOR SPEED™ PAYBACK

4 сезон

9 сезон

Бесстыжие 9 сезон

Все сериалы

все сериалы на PB.wtf

RePack

FAR CRY 5
  

Хэппи / Happy! / Сезон 2 / Серия 1-10 из 10 (Брайан Тейлор, Дэвид Петрарка) [2019, фэнтези, триллер, комедия, криминал, детектив, WEB-DLRip] [MVO] (Jaskier) pb.wtf

Хэппи через торрент pb.wtf

Размер: 5.4 GB | Добавлен: 10 мес. назад | Торрент скачан:4 раза
Скачать  

30-03-2019 20:29 Хэппи Скачать торрент  

Хэппи / Happy!
Год выхода: 2019
Жанр: фэнтези, триллер, комедия, криминал, детектив
Страна: США
Продолжительность: ~ 00:50:00
Перевод: Профессиональный (многоголосый закадровый) | (Jaskier) *Без цензуры!*

Режиссер: Брайан Тейлор, Дэвид Петрарка

В ролях: Кристофер Мелони, Рен Колли, Александр Джеймисон, Кэтти Бет Холл, Кэтрин ЛеФрер, Бенджамин Снайдер и др.

О фильме:

Ник Сакс, вечно пьяный бывший полицейский, становится наёмным убийцей. Он плывёт по течению в мире случайных смертей, секса и предательства. Когда одно из его дел идёт наперекосяк, нетрезвая жизнь Сакса навсегда меняется с появлением крошечного, вечно положительного, воображаемого голубого крылатого коня.

rating

Качество: WEB-DLRip
Кодек: AVI
Видео: 720x400 (1.80:1), 23.976 fps, XviD build 73 ~1399 kbps avg, 0.20 bit/pixel
Звук: 48 kHz, AC3 Dolby Digital, 2/0 (L,R) ch, ~192 kbps
скриншот  скриншот  скриншот  
General
Complete name : E:\Happy. Season 2 (WEB-DL l 400p l Jaskier)\Happy.S02E01.400p.Jaskier.avi
Format : AVI
Format/Info : Audio Video Interleave
File size : 579 MiB
Duration : 48 min 27 s
Overall bit rate : 1 670 kb/s
Writing application : VirtualDubMod 1.5.10.3 | www.virtualdub-fr.org || (build 2550/release)
Writing library : VirtualDubMod build 2550/release

Video
ID : 0
Format : MPEG-4 Visual
Format profile : Advanced Simple@L5
Format settings : BVOP2 / Custom Matrix
Format settings, BVOP : 2
Format settings, QPel : No
Format settings, GMC : No warppoints
Format settings, Matrix : Custom
Codec ID : XVID
Codec ID/Hint : XviD
Duration : 48 min 27 s
Bit rate : 1 337 kb/s
Width : 720 pixels
Height : 400 pixels
Display aspect ratio : 16:9
Frame rate : 23.976 (24000/1001) FPS
Color space : YUV
Chroma subsampling : 4:2:0
Bit depth : 8 bits
Scan type : Progressive
Compression mode : Lossy
Bits/(Pixel*Frame) : 0.194
Stream size : 463 MiB (80%)
Writing library : XviD 73

Audio #1
ID : 1
Format : MPEG Audio
Format version : Version 1
Format profile : Layer 3
Format settings : Joint stereo / MS Stereo
Mode : Joint stereo
Mode extension : MS Stereo
Codec ID : 55
Codec ID/Hint : MP3
Duration : 48 min 27 s
Bit rate mode : Constant
Bit rate : 128 kb/s
Channel(s) : 2 channels
Sampling rate : 48.0 kHz
Compression mode : Lossy
Stream size : 44.4 MiB (8%)
Alignment : Aligned on interleaves

Audio #2
ID : 2
Format : MPEG Audio
Format version : Version 1
Format profile : Layer 3
Format settings : Joint stereo / MS Stereo
Mode : Joint stereo
Mode extension : MS Stereo
Codec ID : 55
Codec ID/Hint : MP3
Duration : 48 min 27 s
Bit rate mode : Constant
Bit rate : 128 kb/s
Channel(s) : 2 channels
Sampling rate : 48.0 kHz
Compression mode : Lossy
Stream size : 44.4 MiB (8%)
Alignment : Aligned on interleaves
Внимание! Раздача ведётся путём добавления новых серий; при каждом добавлении создаётся новый торрент. Чтобы начать докачку новой серии, пользователям необходимо сделать следующее:

Остановить скачивание.

Удалить старый торрент у себя из клиента (старые серии удалять не надо).

Скачать новый торрент и запустить его у себя в клиенте вместо старого, при этом указать клиенту путь в старую папку куда и должно происходить скачивание новых серий.

Ваш клиент при этом должен произвести хеширование (проверку) старой папки (если не производит сам - помогите ему сделать это), и будет докачивать только те серии которых у вас ещё нет. Старые серии при этом не удаляются, а продолжают раздаваться!

Eсли вы уже удалили старые серии, то предотвратить повторную закачку старых серий можно, отжав галочку в соответсвующих местах при запуске нового торрента. По возможности, желательно не удалять старые серии как можно дольше чтобы релизёр не столько продолжал раздавать старые серии, а смог сконцентрироваться на новых.
pb.wtf



Скачать Хэппи через торрент http://i100.fastpic.ru/big/2017/1208/1d/3a475b5ced1649e4d70dc29705c22b1d.jpg Скачать фильм Хэппи через торрент бесплантно в хорошем качестве О фильме:Ник Сакс, вечно пьяный бывший полицейский, становится наёмным убийцей. Он плывёт по течению в мире случайных смертей, секса и ... 8 10 2
Торрент: Зарегистрирован [2020-01-22 11:21] · скачан: 4 раз
Статус: √ проверено
Размер: 5.4 GB
Как cкачать? Как скачать Хэппи через торрент | qTorrent

% Раздел Тема Автор DL S | L
Зарубежные сериалы [ 18.58 GB ] Хэппи / Happy! / Сезон: 2 / Серии: 1-10 из 10 [2019 BDRip-HEVC 1080p] Кубик в Кубе RealOldGamer Скачать
2 | 1
Зарубежные сериалы [ 30.13 GB ] Хэппи / Happy! / Сезон: 2 / Серии: 1-10 из 10 [2019 WEB-DL 1080p] DVO [Кубик в Кубе] bober100 Скачать
1 | 0
Зарубежные сериалы [ 29.34 GB ] Хэппи / Happy! / Сезон: 2 / Серии: 1-10 из 10 [2019 WEB-DL 1080p] MVO [TVShows] bober100 Скачать
1 | 0
Зарубежные сериалы [ 18.99 GB ] Хэппи / Happy / Сезон: 2 / Серии: 1-10 из 10 [2019 WEB-DL 720p] + [MVO] killermax2013 Скачать
1 | 0
Зарубежные сериалы [ 4.29 GB ] Хэппи / Happy! / Сезон 2 / Серия 1-9 из 10 [2019 WEBRip-AVC] [MVO] killermax2013 Скачать
1 | 0
Зарубежные сериалы [ 5.57 GB ] Хэппи! / Happy! / Сезон: 2 / Серии: 1-10 из 10 [2019 WEB-DLRip] MVO [Good People] bober100 Скачать
1 | 0
Зарубежные сериалы [ 1.68 GB ] Хэппи / Happy! / Сезон: 2 / Серии: 1 из 10 [2019 WEB-DL 720p] MVO [NewStudio] bober100 Скачать
1 | 0


Последний раз редактировалось: killermax2013 (2020-01-22 11:21), всего редактировалось 3 раз(а)

28-11-2019 20:33  

Отключить всю рекламу на сайте

31-03-2019 08:21 Хэппи Скачать торрент  

1 сезон ржачный, посмотримpb.wtf



    Дорогой пользователь! Огромная просьба, поблагодарите релизера, оцените раздачу и оставьте свои комментарий, если Вы скачали Хэппи через торрент бесплатно! Внесите свою лепту в развитие PiratBit!
    Комментировать посты могут только пользователи прошедшие не сложную регистрацию
    Показать сообщения:    

    Хэппи через торрент
    Скачать бесплатно Хэппи
    Хэппи скачать торрент
    Хэппи смотреть онлайн
    Cкачать фильм Хэппи бесплатно
    Хэппи скачать торрент в хорошем качестве
    Хэппи смотреть онлайн бесплатно в хорошем качестве


    Вы не можете начинать темы
    Вы не можете отвечать на сообщения
    Вы не можете редактировать свои сообщения
    Вы не можете удалять свои сообщения
    Вы не можете голосовать в опросах
    Вы не можете прикреплять файлы к сообщениям
    Вы можете скачивать файлы