новый адрес
Ссылка на приватное зеркало всего за 1$. Внимание количество ограничено!!!

iTunes

1+1

iTunes

мы

iTunes

1

iTunes

Чернобыль

iTunes

Ральф против интернета

Лицензия

ПШазам

Лицензия

Оно 2

Лицензия

30
pack

Вам бонус

ВАЖНО

!!Акция!!

Alien_RageХит недели

RePack

Resident Evil 21

ИГРА 18+

pack

RePack

jed

!!Акция!!

Alien_Rage

RePack

fifa19

RePack

Assassins Creed: Odyssey

RePack

NEED FOR SPEED™ PAYBACK

3 сезон

9 сезон

Бесстыжие 9 сезон

Все сериалы

все сериалы на PB.wtf

RePack

FAR CRY 5
Ребята, катастрофически не хватает 1900р. для оплаты серверов за Октябрь (всвязи с блокировками трафик упал в 3 раза), 1-2р., выручайте.
  

Щелкунчик и четыре королевства / The Nutcracker and the Four Realms (Лассе Халльстрём, Джо Джонстон) [2018, фэнтези, приключения, семейный, BDRip-AVC] DUB [Лицензия] pb.wtf

Щелкунчик и четыре королевства через торрент pb.wtf

Раздают: 4 [ 0 KB/s ]
Размер: 2.14 GB | Добавлен: 8 мес. назад | Торрент скачан:617 раз
Скачать  

31-03-2019 01:54 Щелкунчик и четыре королевства Скачать торрент  

Щелкунчик и четыре королевства / The Nutcracker and the Four Realms«Пришло время открыть тайну»

Год выпуска: 2018
Страна: США
Жанр: фэнтези, приключения, семейный
Продолжительность: 01:39:16
Перевод: Дублированный | Лицензия
Субтитры: русские (полные, SDH), английские (полные, SDH)
Режиссер: Лассе Халльстрём , Джо Джонстон
В ролях:

Маккензи Фой (Clara), Джейден Фовора-Найт (Phillip), Кира Найтли (Sugar Plum), Хелен Миррен (Mother Ginger), Морган Фриман (Drosselmeyer), Мисти Коуплэнд (Ballerina Princess), Эухенио Дербес (Hawthorne), Ричард Э. Грант (Shiver), Мэттью Макфэдиен (Mr. Stahlbaum), Сергей Полунин (Sweets Cavalier), Том Свит (Fritz), Мира Сайал (Cook)
Описание:
Получив необычный подарок на Рождество, юная Клара отправляется в захватывающее путешествие по загадочным местам: Стране Снегов, Стране Цветов и Стране Сладостей. Но девушке нужно попасть и в четвертое королевство, где ей придется столкнуться с целой армией мышей во главе с невероятно опасным Мышиным Королем.
Рейтинг:

MPAA: PG - Рекомендуется присутствие родителей
Качество: BDRip-AVC | Исх. The.Nutcracker.and.the.Four.Realms.2018.COMPLETE.BLURAY-COASTER
Формат: MKV
Видео: 1024x554 (1.85:1), 23,976 fps, x264 ~2 193 kbps avg, 0.161 bit/pixel
Аудио #1: 48 kHz, AC3 Dolby Digital Plus, 3/2 (L,C,R,l,r) + LFE ch, ~448.00 kbps avg | RUS (Лицензия)
Аудио #2: 48 kHz, AC3 Dolby Digital Plus, 3/2 (L,C,R,l,r) + LFE ch, ~448.00 kbps avg | ENG
Навигация по главам: есть

Общее
Уникальный идентификатор : 66052234008362892502422030501906468356 (0x31B13291C98D8B3F1FD3DE72C41BCE04)
Полное имя : F:\OlLanDGroup\The.Nutcracker.and.the.Four.Realms.2018.BDRip(AVC).OlLanDGroup.mkv
Формат : Matroska
Версия формата : Version 4 / Version 2
Размер файла : 2,14 Гбайт
Продолжительность : 1 ч. 39 м.
Общий поток : 3092 Кбит/сек
Название фильма : The.Nutcracker.and.the.Four.Realms.2018 #TorpedoUK#
Дата кодирования : UTC 2019-03-30 12:06:48
Программа кодирования : mkvmerge v29.0.0 ('Like It Or Not') 64-bit
Библиотека кодирования : libebml v1.3.6 + libmatroska v1.4.9

Видео
Идентификатор : 1
Формат : AVC
Формат/Информация : Advanced Video Codec
Профиль формата : High@L4.1
Параметр CABAC формата : Да
Параметр ReFrames формата : 10 кадров
Идентификатор кодека : V_MPEG4/ISO/AVC
Продолжительность : 1 ч. 39 м.
Битрейт : 2193 Кбит/сек
Ширина : 1024 пикселя
Высота : 554 пикселя
Соотношение сторон : 1,85:1
Режим частоты кадров : Постоянный
Частота кадров : 23,976 (24000/1001) кадра/сек
Цветовое пространство : YUV
Субдискретизация насыщенности : 4:2:0
Битовая глубина : 8 бит
Тип развёртки : Прогрессивная
Бит/(Пиксели*Кадры) : 0.161
Размер потока : 1,52 Гбайт (71%)
Библиотека кодирования : x264 core 146 r2538 121396c
Настройки программы : cabac=1 / ref=10 / deblock=1:-3:-3 / analyse=0x3:0x113 / me=umh / subme=11 / psy=1 / psy_rd=0.99:0.04 / mixed_ref=1 / me_range=48 / chroma_me=1 / trellis=2 / 8x8dct=1 / cqm=0 / deadzone=21,11 / fast_pskip=1 / chroma_qp_offset=-3 / threads=6 / lookahead_threads=1 / sliced_threads=0 / nr=0 / decimate=1 / interlaced=0 / bluray_compat=0 / constrained_intra=0 / bframes=11 / b_pyramid=2 / b_adapt=2 / b_bias=0 / direct=3 / weightb=1 / open_gop=0 / weightp=2 / keyint=240 / keyint_min=23 / scenecut=40 / intra_refresh=0 / rc_lookahead=40 / rc=2pass / mbtree=0 / bitrate=2193 / ratetol=1.0 / qcomp=0.60 / qpmin=0 / qpmax=69 / qpstep=4 / cplxblur=20.0 / qblur=0.5 / vbv_maxrate=50000 / vbv_bufsize=62500 / nal_hrd=none / filler=0 / ip_ratio=1.40 / pb_ratio=1.30 / aq=1:1.00
Язык : English
Default : Да
Forced : Нет

Аудио #1
Идентификатор : 2
Формат : AC-3
Формат/Информация : Audio Coding 3
Расширение режима : CM (complete main)
Параметр Endianness формата : Big
Идентификатор кодека : A_AC3
Продолжительность : 1 ч. 39 м.
Вид битрейта : Постоянный
Битрейт : 448 Кбит/сек
Каналы : 6 каналов
Расположение каналов : Front: L C R, Side: L R, LFE
Частота : 48,0 КГц
Частота кадров : 31,250 кадров/сек (1536 spf)
Битовая глубина : 16 бит
Метод сжатия : С потерями
Размер потока : 318 Мбайт (14%)
Заголовок : DUB [License]
Язык : Russian
Default : Да
Forced : Нет

Аудио #2
Идентификатор : 3
Формат : AC-3
Формат/Информация : Audio Coding 3
Расширение режима : CM (complete main)
Параметр Endianness формата : Big
Идентификатор кодека : A_AC3
Продолжительность : 1 ч. 39 м.
Вид битрейта : Постоянный
Битрейт : 448 Кбит/сек
Каналы : 6 каналов
Расположение каналов : Front: L C R, Side: L R, LFE
Частота : 48,0 КГц
Частота кадров : 31,250 кадров/сек (1536 spf)
Битовая глубина : 16 бит
Метод сжатия : С потерями
Размер потока : 318 Мбайт (14%)
Заголовок : [Original]
Язык : English
Default : Нет
Forced : Нет

Текст #1
Идентификатор : 4
Формат : UTF-8
Идентификатор кодека : S_TEXT/UTF8
Идентификатор кодека/Информация : UTF-8 Plain Text
Продолжительность : 1 ч. 27 м.
Битрейт : 72 бит/сек
Count of elements : 1043
Размер потока : 46,6 Кбайт (0%)
Заголовок : Full
Язык : Russian
Default : Нет
Forced : Нет

Текст #2
Идентификатор : 5
Формат : UTF-8
Идентификатор кодека : S_TEXT/UTF8
Идентификатор кодека/Информация : UTF-8 Plain Text
Продолжительность : 1 ч. 36 м.
Битрейт : 72 бит/сек
Count of elements : 1339
Размер потока : 51,4 Кбайт (0%)
Заголовок : SDH
Язык : Russian
Default : Нет
Forced : Нет

Текст #3
Идентификатор : 6
Формат : UTF-8
Идентификатор кодека : S_TEXT/UTF8
Идентификатор кодека/Информация : UTF-8 Plain Text
Продолжительность : 1 ч. 27 м.
Битрейт : 43 бит/сек
Count of elements : 1096
Размер потока : 27,7 Кбайт (0%)
Заголовок : Full
Язык : English
Default : Нет
Forced : Нет

Текст #4
Идентификатор : 7
Формат : UTF-8
Идентификатор кодека : S_TEXT/UTF8
Идентификатор кодека/Информация : UTF-8 Plain Text
Продолжительность : 1 ч. 36 м.
Битрейт : 45 бит/сек
Count of elements : 1338
Размер потока : 32,4 Кбайт (0%)
Заголовок : SDH
Язык : English
Default : Нет
Forced : Нет

Меню
00:00:00.000 : :Chapter 01
00:08:39.101 : :Chapter 02
00:16:47.089 : :Chapter 03
00:25:37.744 : :Chapter 04
00:34:20.892 : :Chapter 05
00:43:28.397 : :Chapter 06
00:48:31.992 : :Chapter 07
00:56:07.655 : :Chapter 08
00:59:09.546 : :Chapter 09
01:04:57.310 : :Chapter 10
01:11:49.722 : :Chapter 11
01:18:10.519 : :Chapter 12
01:22:04.002 : :Chapter 13
01:30:06.651 : :Chapter 14
01:39:14.073 : :Chapter 15
pb.wtf



Скачать Щелкунчик и четыре королевства через торрент https://c.radikal.ru/c12/1903/ad/21e1f90d0fdd.png Скачать фильм Щелкунчик и четыре королевства через торрент бесплантно в хорошем качестве Описание: Получив необычный подарок на Рождество, юная Клара отправляется в захватывающее путешествие по загадочным местам: Стране Снегов, ... 10 10 14
Торрент: Зарегистрирован [2019-03-31 01:54] · скачан: 617 раз
Статус: √ проверено
Размер: 2.14 GB
Как cкачать? Как скачать Щелкунчик и четыре королевства через торрент | qTorrent

% Раздел Тема Автор DL S | L
T Фильмы с украинским озвучиванием [ 3.97 GB ] Щелкунчик и четыре королевства / The Nutcracker and the Four Realms [2018 BDRip 720p] [Ukr DUB] killermax2013 Скачать
1 | 0
Фильмы 2018 [DVDrip, WEB-DLRip, HDrip] (DUB, MVO) [ 1.46 GB ] Щелкунчик и четыре королевства / The Nutcracker and the Four Realms [2018 BDRip] - [] Twi7ter Скачать
3 | 0
Ultra HD (UHD: 2K, 4K, 8K) — видео сверхвысокой чёткости [ 16.63 GB ] Щелкунчик и четыре королевства / The Nutcracker and the Four Realms [2018 UHD BDRip 2160p] DUB [ BD RUS] bober100 Скачать
3 | 0
Фильмы [HD 720p, 1080p] (Хороший звук DUB, MVO) [ 7.72 GB ] Щелкунчик и четыре королевства / The Nutcracker and the Four Realms [2018 BDRip 1080p] DUB [] sheker187 Скачать
9 | 0
Фильмы (Blu-ray, BD-Remux, HDDVD) [ 26.02 GB ] Щелкунчик и четыре королевства / The Nutcracker and the Four Realms [2018 BDRemux 1080p] DUB [] sheker187 Скачать
2 | 0
Фильмы 2018 [DVDrip, WEB-DLRip, HDrip] (DUB, MVO) [ 1.46 GB ] Щелкунчик и четыре королевства / The Nutcracker and the Four Realms [2018 BDRip ] oleg8 Скачать
5 | 0
Фильмы 2018 [DVDrip, WEB-DLRip, HDrip] (DUB, MVO) [ 745 MB ] Щелкунчик и четыре королевства / The Nutcracker and the Four Realms [2018 BDRip] bober100 Скачать
1 | 0
Отключить всю рекламу на сайте
    Дорогой пользователь! Огромная просьба, поблагодарите релизера, оцените раздачу и оставьте свои комментарий, если Вы скачали Щелкунчик и четыре королевства через торрент бесплатно! Внесите свою лепту в развитие PiratBit!
    Комментировать посты могут только пользователи прошедшие не сложную регистрацию
    Показать сообщения:    

    Щелкунчик и четыре королевства через торрент
    Скачать бесплатно Щелкунчик и четыре королевства
    Щелкунчик и четыре королевства скачать торрент
    Щелкунчик и четыре королевства смотреть онлайн
    Cкачать фильм Щелкунчик и четыре королевства бесплатно
    Щелкунчик и четыре королевства скачать торрент в хорошем качестве
    Щелкунчик и четыре королевства смотреть онлайн бесплатно в хорошем качестве


    Вы не можете начинать темы
    Вы не можете отвечать на сообщения
    Вы не можете редактировать свои сообщения
    Вы не можете удалять свои сообщения
    Вы не можете голосовать в опросах
    Вы не можете прикреплять файлы к сообщениям
    Вы можете скачивать файлы