новый адрес
Ссылка на приватное зеркало всего за 1$. Внимание количество ограничено!!!

iTunes

1+1

iTunes

мы

WEB-DL

1

iTunes

Чернобыль

iTunes

Ральф против интернета

Лицензия

ПШазам

Лицензия

Оно 2

Лицензия

30
pack

Вам бонус

ВАЖНО

!!Акция!!

Alien_RageХит недели

RePack

Resident Evil 21

ИГРА 18+

pack

RePack

jed

!!Акция!!

Alien_Rage

RePack

fifa19

RePack

Assassins Creed: Odyssey

RePack

NEED FOR SPEED™ PAYBACK

3 сезон

9 сезон

Бесстыжие 9 сезон

Все сериалы

все сериалы на PB.wtf

RePack

FAR CRY 5
Ребята, катастрофически не хватает 1900р. для оплаты серверов за Октябрь (всвязи с блокировками трафик упал в 3 раза), 1-2р., выручайте.
  

До новых встреч, Муслим (Керим Керимов, Фахри Мустафаев) [1963, СССР, музыка, VHSRip от AVP Studio] pb.wtf

До новых встреч, Муслим через торрент pb.wtf

Размер: 745 MB | Добавлен: 8 мес. назад | Торрент скачан:1 раз
Скачать  

31-03-2019 08:04 До новых встреч, Муслим Скачать торрент  

До новых встреч, Муслим
Страна: СССР
Производство: Бакинская киностудия

Жанр: музыка
Год выпуска: 1963
Продолжительность: 00:53:44

Перевод: Не требуется
Cубтитры: нет
Оригинальная аудиодорожка: русский

Режиссер: Фахри Мустафаев

В ролях:
Муслим Магомаев...

Описание:
Нефтяники Каспия увидели по телевизору выступление Муслима Магомаева и решили пригласить его к себе на промысел выступить. Один из нефтяников едет в Баку искать Муслима…

Исходник: VHS
Качество видео: VHSRip
Формат видео: AVI

Видео: 704x528 (4:3), 25,000 кадров/сек, XviD ~ 1738 kbps avg, 0.187 bit/pixel
Аудио: 48 kHz, Dolby Digital AC3 2.0, 192 kbps

Раздача от:
Общее
Полное имя : Do.novyh.vstrech,Muslim.1963.VHSRip_[New-team]_by_AVP_Studio.avi
Формат : AVI
Формат/Информация : Audio Video Interleave
Размер файла : 745 Мбайт
Продолжительность : 53 м. 44 с.
Общий поток : 1940 Кбит/сек
Программа кодирования : VirtualDubMod 1.5.10.3 | www.virtualdub-fr.org || (build 2550/release)
Библиотека кодирования : VirtualDubMod build 2550/release

Видео
Идентификатор : 0
Формат : MPEG-4 Visual
Профиль формата : Advanced Simple@L5
Настройки формата : BVOP1 / Custom Matrix
Параметр BVOP формата : 1
Параметр QPel формата : Нет
Параметр GMC формата : Без точки перехода
Параметр матрицы формата : Выборочная
Идентификатор кодека : XVID
Идентификатор кодека/Подсказка : XviD
Продолжительность : 53 м. 44 с.
Битрейт : 1738 Кбит/сек
Ширина : 704 пикселя
Высота : 528 пикселей
Соотношение сторон : 4:3
Частота кадров : 25,000 кадров/сек
Цветовое пространство : YUV
Субдискретизация насыщенности : 4:2:0
Битовая глубина : 8 бит
Тип развёртки : Прогрессивная
Метод сжатия : С потерями
Бит/(Пиксели*Кадры) : 0.187
Размер потока : 668 Мбайт (90%)
Библиотека кодирования : XviD 73

Аудио
Идентификатор : 1
Формат : AC-3
Формат/Информация : Audio Coding 3
Коммерческое название : Dolby Digital
Идентификатор кодека : 2000
Продолжительность : 53 м. 44 с.
Вид битрейта : Постоянный
Битрейт : 192 Кбит/сек
Каналы : 2 канала
Channel layout : L R
Частота : 48,0 КГц
Частота кадров : 31,250 кадров/сек (1536 SPF)
Битовая глубина : 16 бит
Метод сжатия : С потерями
Размер потока : 73,8 Мбайт (10%)
Выравнивание : Разделение по промежуткам
Продолжительность промежутка : 40 мс. (1,00 видеокадр)
Время предзагрузки промежутка : 500 мс
pb.wtf



Скачать До новых встреч, Муслим через торрент http://picplus.ru/img/1903/31/1de75e7d.png Скачать фильм До новых встреч, Муслим через торрент бесплантно в хорошем качестве Описание:Нефтяники Каспия увидели по телевизору выступление Муслима Магомаева и решили пригласить его к себе на промысел выступить. Один из ... 5 10 1
Торрент: Зарегистрирован [2019-03-31 08:04] · скачан: 1 раз
Статус: √ проверено
Размер: 745 MB
Как cкачать? Как скачать До новых встреч, Муслим через торрент | qTorrent

% Раздел Тема Автор DL S | L
Кино СССР [ 744 MB ] До новых встреч Муслим [1963 СССР музыка VHSRip-AVC от AVP Studio] AVP Studio Скачать
1 | 0

28-11-2019 20:33  

Отключить всю рекламу на сайте

    Дорогой пользователь! Огромная просьба, поблагодарите релизера, оцените раздачу и оставьте свои комментарий, если Вы скачали До новых встреч, Муслим через торрент бесплатно! Внесите свою лепту в развитие PiratBit!
    Комментировать посты могут только пользователи прошедшие не сложную регистрацию
    Показать сообщения:    

    До новых встреч, Муслим через торрент
    Скачать бесплатно До новых встреч, Муслим
    До новых встреч, Муслим скачать торрент
    До новых встреч, Муслим смотреть онлайн
    Cкачать фильм До новых встреч, Муслим бесплатно
    До новых встреч, Муслим скачать торрент в хорошем качестве
    До новых встреч, Муслим смотреть онлайн бесплатно в хорошем качестве


    Вы не можете начинать темы
    Вы не можете отвечать на сообщения
    Вы не можете редактировать свои сообщения
    Вы не можете удалять свои сообщения
    Вы не можете голосовать в опросах
    Вы не можете прикреплять файлы к сообщениям
    Вы можете скачивать файлы