новый адрес пиратбит piratbit
Мега распродажа FORZA HORIZON 4 ULTIMATE+ВСЕ DLC+ОНЛАЙН всего за 499р. 349 руб. (супер цена). Внимание количество ограничено!!!

iTunes

1+1

iTunes

мы

iTunes

1

iTunes

Чернобыль

iTunes

Ральф против интернета

Лицензия

ПШазам

Лицензия

Игра престолов

Лицензия

30
pack

ВАЖНО

!!Акция!!

Alien_RageХит недели

RePack

Resident Evil 21

ИГРА 18+

pack

RePack

Metro:Exodus

!!Акция!!

Alien_Rage

RePack

fifa19

RePack

Assassins Creed: Odyssey

RePack

NEED FOR SPEED™ PAYBACK

3 сезон

9 сезон

Бесстыжие 9 сезон

Все сериалы

все сериалы на PB.wtf

RePack

FAR CRY 5
Ребята, катастрофически не хватает 1900р. для оплаты серверов за Октябрь (всвязи с блокировками трафик упал в 3 раза), 1-2р., выручайте.
  

До новых встреч, Муслим (Керим Керимов, Фахри Мустафаев) [1963, СССР, музыка, VHSRip-AVC от AVP Studio] pb.wtf

До новых встреч, Муслим через торрент pb.wtf

Размер: 744 MB | Добавлен: 7 мес. назад | Торрент скачан:4 раза
Скачать  

31-03-2019 08:07 До новых встреч, Муслим Скачать торрент  

До новых встреч, Муслим
Страна: СССР
Производство: Бакинская киностудия

Жанр: музыка
Год выпуска: 1963
Продолжительность: 00:53:44

Перевод: Не требуется
Cубтитры: нет
Оригинальная аудиодорожка: русский

Режиссер: Фахри Мустафаев

В ролях:
Муслим Магомаев...

Описание:
Нефтяники Каспия увидели по телевизору выступление Муслима Магомаева и решили пригласить его к себе на промысел выступить. Один из нефтяников едет в Баку искать Муслима…

Исходник: VHS
Качество видео: VHSRip-AVC
Формат видео: MKV

Видео: 704->736x552 (4:3), 25,000 кадров/сек, H264 ~ 1744 kbps avg, 0.180 bit/pixel
Аудио: 48 kHz, Dolby Digital AC3 2.0, 192 kbps

Раздача от:
Общее
Полное имя : Do.novyh.vstrech,Muslim.1963.VHSRip-AVC_[New-team]_by_AVP_Studio.mkv
Формат : Matroska
Версия формата : Version 2
Размер файла : 744 Мбайт
Продолжительность : 53 м. 44 с.
Общий поток : 1937 Кбит/сек
Дата кодирования : UTC 2019-03-28 10:39:47
Программа кодирования : mkvmerge v6.1.0 ('Old Devil') built on Mar 4 2013 09:10:42
Библиотека кодирования : libebml v1.3.0 + libmatroska v1.4.0

Видео
Идентификатор : 1
Формат : AVC
Формат/Информация : Advanced Video Codec
Профиль формата : High@L4.1
Настройки формата : CABAC / 10 Ref Frames
Параметр CABAC формата : Да
Параметр RefFrames формата : 10 кадров
Идентификатор кодека : V_MPEG4/ISO/AVC
Продолжительность : 53 м. 44 с.
Битрейт : 1744 Кбит/сек
Ширина : 704 пикселя
Высота : 552 пикселя
Соотношение сторон : 4:3
Режим частоты кадров : Постоянный
Частота кадров : 25,000 кадров/сек
Цветовое пространство : YUV
Субдискретизация насыщенности : 4:2:0
Битовая глубина : 8 бит
Тип развёртки : Прогрессивная
Бит/(Пиксели*Кадры) : 0.180
Размер потока : 656 Мбайт (88%)
Библиотека кодирования : x264 core 157 r2935 545de2f
Настройки программы : cabac=1 / ref=10 / deblock=1:-2:-1 / analyse=0x3:0x113 / me=umh / subme=10 / psy=1 / psy_rd=1.00:0.00 / mixed_ref=1 / me_range=32 / chroma_me=1 / trellis=2 / 8x8dct=1 / cqm=0 / deadzone=21,11 / fast_pskip=1 / chroma_qp_offset=-2 / threads=6 / lookahead_threads=1 / sliced_threads=0 / nr=0 / decimate=0 / interlaced=0 / bluray_compat=0 / constrained_intra=0 / bframes=8 / b_pyramid=2 / b_adapt=2 / b_bias=0 / direct=3 / weightb=1 / open_gop=0 / weightp=2 / keyint=250 / keyint_min=25 / scenecut=40 / intra_refresh=0 / rc=2pass / mbtree=0 / bitrate=1744 / ratetol=1.0 / qcomp=0.60 / qpmin=0 / qpmax=69 / qpstep=4 / cplxblur=20.0 / qblur=0.5 / ip_ratio=1.40 / pb_ratio=1.30 / aq=1:1.00
Default : Да
Forced : Нет

Аудио
Идентификатор : 2
Формат : AC-3
Формат/Информация : Audio Coding 3
Коммерческое название : Dolby Digital
Идентификатор кодека : A_AC3
Продолжительность : 53 м. 44 с.
Вид битрейта : Постоянный
Битрейт : 192 Кбит/сек
Каналы : 2 канала
Channel layout : L R
Частота : 48,0 КГц
Частота кадров : 31,250 кадров/сек (1536 SPF)
Битовая глубина : 16 бит
Метод сжатия : С потерями
Размер потока : 73,8 Мбайт (10%)
Default : Да
Forced : Нет
pb.wtf



Скачать До новых встреч, Муслим через торрент http://picplus.ru/img/1903/31/1de75e7d.png Скачать фильм До новых встреч, Муслим через торрент бесплантно в хорошем качестве Описание:Нефтяники Каспия увидели по телевизору выступление Муслима Магомаева и решили пригласить его к себе на промысел выступить. Один из ... 5 10 1
Торрент: Зарегистрирован [2019-03-31 08:07] · скачан: 4 раз
Статус: √ проверено
Размер: 744 MB
Как cкачать? Как скачать До новых встреч, Муслим через торрент | qTorrent

% Раздел Тема Автор DL S | L
Кино СССР [ 745 MB ] До новых встреч Муслим [1963 СССР музыка VHSRip от AVP Studio] AVP Studio Скачать
1 | 0


>> Регистрируемся здесь <<






Отзывы и комментарии о схеме читаем и пишем здесь: ---> Отзывы и комментарии о схеме

Новые благодарочки в телеграм довольных пользователей:
скриншот   скриншот   скриншот   скриншот   скриншот
    Дорогой пользователь! Огромная просьба, поблагодарите релизера, оцените раздачу и оставьте свои комментарий, если Вы скачали До новых встреч, Муслим через торрент бесплатно! Внесите свою лепту в развитие PiratBit!
    Комментировать посты могут только пользователи прошедшие не сложную регистрацию
    Показать сообщения:    

    До новых встреч, Муслим через торрент
    Скачать бесплатно До новых встреч, Муслим
    До новых встреч, Муслим скачать торрент
    До новых встреч, Муслим смотреть онлайн
    Cкачать фильм До новых встреч, Муслим бесплатно
    До новых встреч, Муслим скачать торрент в хорошем качестве
    До новых встреч, Муслим смотреть онлайн бесплатно в хорошем качестве


    Вы не можете начинать темы
    Вы не можете отвечать на сообщения
    Вы не можете редактировать свои сообщения
    Вы не можете удалять свои сообщения
    Вы не можете голосовать в опросах
    Вы не можете прикреплять файлы к сообщениям
    Вы можете скачивать файлы