MEGA SALE -50% FORZA HORIZON 4 ULTIMATE+ВСЕ DLC+ОНЛАЙН всего за 599р. 299 руб. (супер цена). Внимание количество ограничено!!!

iTunes

1+1

iTunes

мы

iTunes

1

iTunes

Чернобыль

1 сезон

Ральф против интернета

Лицензия

ПШазам

Лицензия

Игра престолов

Лицензия

30
pack

ВАЖНО

!!Акция!!

Alien_RageХит недели

RePack

Resident Evil 21

ИГРА 18+

pack

RePack

Metro:Exodus

!!Акция!!

Alien_Rage

RePack

fifa19

RePack

Assassins Creed: Odyssey

RePack

NEED FOR SPEED™ PAYBACK

3 сезон

9 сезон

Бесстыжие 9 сезон

Все сериалы

все сериалы на PB.wtf

RePack

FAR CRY 5
Ребята, катастрофически не хватает 7730р. для оплаты серверов за ИЮЛЬ (всвязи с блокировками трафик упал в 3 раза), 1-2р., выручайте.
  

Мамы чемпионов / Сезон: 1 / Серии: 1-20 из 20 (Сергей Арланов) [2019, Драма, спорт, WEB-DLRip] pb.wtf

Мамы чемпионов через торрент pb.wtf

Раздают: 1 [ 0.7 KB/s ]
Размер: 11.72 GB | Добавлен: 4 мес. назад | Торрент скачан:41 раз
Скачать  

31-03-2019 12:30 Мамы чемпионов Скачать торрент  

Мамы чемпионовГод выпуска: 2019
Страна: Россия
Жанр: Драма, спорт
Продолжительность: ~ 00:45:00 серия
Субтитры: отсутствуют

Режиссер: Сергей Арланов



В ролях:

Екатерина Вилкова, Ирина Розанова, Павел Трубинер, Мария Звонарёва, Григорий Верник, Нелли Неведина, Михаил Химичев, Мария Валешная, Руслан Ягудин, Ася Дубровская, Данил Акутин, Вячеслав Чепурченко, Софья Лукьянова

Описание:

У 17-летней Веры было всё: золото на соревнованиях, любимый человек, обожаемый папа, мама — тренер по плаванию. Но после предательства мамы в один момент от Веры «уплыла» вся её успешная жизнь: девушка неожиданно покидает большой спорт и остаётся одна с ребёнком на руках. Спустя 15 лет, она успешный тренер, среди подопечных которой — её сын Кирилл. Только прошлое не отпускает Веру и преподносит заманчивое предложение. И теперь бывшей чемпионке придётся вновь столкнуться не только с коварством собственной матери, готовой пойти на всё ради больших побед, но и экс-парнем, возглавившим сборную страны по плаванию.

Качество: WEB-DLRip
Формат: AVI

Видео: XviD, ~ 1600 Кбит/с, 720x400
Аудио: AC3, 2 ch, 192 Кбит/с
скриншот   скриншот   скриншот   скриншот   скриншот   скриншот   скриншот  
скриншот  

General
Complete name : D:\Mamy.chempionov.2018.WEB-DLRip.25Kuzmich\Mamy.chempionov.s01.e01.WEB-DLRip.25Kuzmich.avi
Format : AVI
Format/Info : Audio Video Interleave
File size : 600 MiB
Duration : 46 min 57 s
Overall bit rate : 1 787 kb/s
Writing application : VirtualDubMod 1.5.10.3 | www.virtualdub-fr.org || (build 2550/release)
Writing library : VirtualDubMod build 2550/release

Video
ID : 0
Format : MPEG-4 Visual
Format profile : Advanced Simple@L5
Format settings : BVOP1
Format settings, BVOP : 1
Format settings, QPel : No
Format settings, GMC : No warppoints
Format settings, Matrix : Default (MPEG)
Codec ID : XVID
Codec ID/Hint : XviD
Duration : 46 min 57 s
Bit rate : 1 585 kb/s
Width : 720 pixels
Height : 400 pixels
Display aspect ratio : 16:9
Frame rate : 25.000 FPS
Color space : YUV
Chroma subsampling : 4:2:0
Bit depth : 8 bits
Scan type : Progressive
Compression mode : Lossy
Bits/(Pixel*Frame) : 0.220
Stream size : 532 MiB (89%)
Writing library : XviD 73

Audio
ID : 1
Format : AC-3
Format/Info : Audio Coding 3
Codec ID : 2000
Duration : 46 min 57 s
Bit rate mode : Constant
Bit rate : 192 kb/s
Channel(s) : 2 channels
Channel positions : Front: L R
Sampling rate : 48.0 kHz
Frame rate : 31.250 FPS (1536 SPF)
Bit depth : 16 bits
Compression mode : Lossy
Stream size : 64.5 MiB (11%)
Alignment : Split accross interleaves
Interleave, duration : 40 ms (1.00 video frame)
Interleave, preload duratio : 500 ms
Service kind : Complete Main

Внимание! Раздача ведётся путём добавления новых серий; при каждом добавлении создаётся новый торрент.
Чтобы начать докачку новой серии, пользователям необходимо сделать следующее:
1. Остановить скачивание;
2. Удалить старый торрент у себя из клиента (старые серии удалять не надо);
3. Скачать новый торрент и запустить его у себя в клиенте вместо старого, при этом указать клиенту путь в старую папку куда и должно происходить скачивание новых серий. Ваш клиент при этом должен произвести хеширование (проверку) старой папки и будет докачивать только те серии, которых у вас ещё нет. Старые серии при этом не удаляются, а продолжают раздаваться! Eсли вы уже удалили старые серии, то предотвратить повторную закачку старых серий можно, отжав галочку в соответствующих местах при запуске нового торрента.
pb.wtf



Скачать Мамы чемпионов через торрент https://i109.fastpic.ru/big/2019/0327/05/a4df7a3d88b76863f5a5b8bdaf8e3705.jpg Скачать фильм Мамы чемпионов через торрент бесплантно в хорошем качестве Описание: У 17-летней Веры было всё: золото на соревнованиях, любимый человек, обожаемый папа, мама — тренер по плаванию. Но после ... 10 10 6
Торрент: Зарегистрирован [2019-04-21 00:02] · скачан: 41 раз
Статус: √ проверено
Размер: 11.72 GB
Как cкачать? Как скачать Мамы чемпионов через торрент | qTorrent

% Раздел Тема Автор DL S | L
Наши сериалы [ 24.46 GB ] Мамы чемпионов / Сезон: 1 / Серии: 1-20 из 20 [2019 WEB-DL 720p] bober100 Скачать
1 | 0
Наши сериалы [ 11.81 GB ] Мамы чемпионов / Сезон: 1 / Серии: 1-20 из 20 [2019 WEB-DLRip-AVC] bober100 Скачать
1 | 1


>> Регистрируемся здесь <<






Отзывы и комментарии о схеме читаем и пишем здесь: ---> Отзывы и комментарии о схеме

Новые благодарочки в телеграм довольных пользователей:
скриншот   скриншот   скриншот   скриншот   скриншот
    Дорогой пользователь! Огромная просьба, поблагодарите релизера, оцените раздачу и оставьте свои комментарий, если Вы скачали Мамы чемпионов через торрент бесплатно! Внесите свою лепту в развитие PiratBit!
    Комментировать посты могут только пользователи прошедшие не сложную регистрацию
    Показать сообщения:    

    Мамы чемпионов через торрент
    Скачать бесплатно Мамы чемпионов
    Мамы чемпионов скачать торрент
    Мамы чемпионов смотреть онлайн
    Cкачать фильм Мамы чемпионов бесплатно
    Мамы чемпионов скачать торрент в хорошем качестве
    Мамы чемпионов смотреть онлайн бесплатно в хорошем качестве


    Вы не можете начинать темы
    Вы не можете отвечать на сообщения
    Вы не можете редактировать свои сообщения
    Вы не можете удалять свои сообщения
    Вы не можете голосовать в опросах
    Вы не можете прикреплять файлы к сообщениям
    Вы можете скачивать файлы