Ссылка на приватное зеркало нашего сайта всего за 1$. Внимание количество ограничено!!!

2 сезон

iTunes

1 сезон

1

iTunes

iTunes

iTunes

1 сезон

RePack

30

ИГРА 18+

pack

ВАЖНО

!!Акция!!

Alien_RageХит недели

RePack

MK11
pack

Забери бонус

RePack

jed

!!Акция!!

Alien_Rage

RePack

fifa19

RePack

Assassins Creed: Odyssey

RePack

NEED FOR SPEED™ PAYBACK

4 сезон

9 сезон

Бесстыжие 9 сезон

Все сериалы

все сериалы на PB.wtf

RePack

FAR CRY 5
  

Мамы чемпионов / Сезон: 1 / Серии: 1-20 из 20 (Сергей Арланов) [2019, драма, спорт, WEB-DL 720p] pb.wtf

Мамы чемпионов через торрент pb.wtf

Размер: 24.46 GB | Добавлен: 1 год 6 мес. назад | Торрент скачан:31 раз
Скачать  

31-03-2019 12:37 Мамы чемпионов Скачать торрент  

Мамы чемпионов Год выпуска: 2019
Производство: «Арт Пикчерс Вижн» при участии «Варвар Студио» по заказу телеканала СТС
Жанр: драма, спорт
Продолжительность: ~00:47:00 серия
Субтитры: нет

Режиссёр: Сергей Арланов

В ролях:

Екатерина Вилкова, Ирина Розанова, Павел Трубинер, Мария Звонарёва, Григорий Верник, Нелли Неведина, Михаил Химичев, Мария Валешная, Руслан Ягудин, Ася Дубровская, Данил Акутин, Вячеслав Чепурченко, Софья Лукьянова

Описание:

У 17-летней Веры было всё: золото на соревнованиях, любимый человек, обожаемый папа, мама — тренер по плаванию. Но после предательства мамы в один момент от Веры «уплыла» вся её успешная жизнь: девушка неожиданно покидает большой спорт и остаётся одна с ребёнком на руках. Спустя 15 лет, она успешный тренер, среди подопечных которой — её сын Кирилл. Только прошлое не отпускает Веру и преподносит заманчивое предложение. И теперь бывшей чемпионке придётся вновь столкнуться не только с коварством собственной матери, готовой пойти на всё ради больших побед, но и экс-парнем, возглавившим сборную страны по плаванию.

Реклама: Нет.

Sample

Качество: WEB-DL 720p
Формат: MKV
Видео кодек: H.264
Аудио кодек: AC3

Видео: MPEG4 AVC Video, H264, 16:9, 1280x720, 25 fps, ~3500 kbps, 0.151 bit/pixel
Аудио: AC3, 48.0 kHz, 2/0 (L,R) ch, 192 kbps
Раздача ведётся путём добавления новых серий, при каждом добавлении создаётся новый торрент. Чтобы начать докачку новой серии, пользователям необходимо сделать следующее:

- Остановить скачивание.
- Удалить старый торрент у себя из клиента (старые серии удалять не надо).
- Скачать новый торрент и запустить его у себя в клиенте вместо старого, при этом указать клиенту путь в старую папку куда и должно происходить скачивание новых серий.

Ваш клиент при этом должен произвести хеширование (проверку) старой папки (если не производит сам - помогите ему сделать это), и будет докачивать только те серии которых у вас ещё нет. Старые серии при этом не удаляются, а продолжают раздаваться!
Если вы уже удалили старые серии, то предотвратить повторную закачку старых серий можно, отжав галочку в соответствующих местах при запуске нового торрента. По возможности, желательно не удалять старые серии как можно дольше, чтобы релизер не столько продолжал раздавать старые серии, а смог сконцентрироваться на новых.
General
Unique ID : 188199921634023605846869666277826422137 (0x8D95FC88AF0F738D94C1A3A7CE92E579)
Complete name : D:\Mamy.chempionov.2018.WEB-DL.(720p).Getty\Mamy.chempionov.e01.2018.WEB-DL.(720p).Getty.mkv
Format : Matroska
Format version : Version 2
File size : 1.23 GiB
Duration : 46 min 57 s
Overall bit rate mode : Variable
Overall bit rate : 3 742 kb/s
Encoded date : UTC 2019-03-27 09:09:35
Writing application : mkvmerge v4.0.0 ('The Stars were mine') сборка от Jun 6 2010 16:18:42
Writing library : libebml v1.0.0 + libmatroska v1.0.0

Video
ID : 1
Format : AVC
Format/Info : Advanced Video Codec
Format profile : High@L4.1
Format settings : CABAC / 5 Ref Frames
Format settings, CABAC : Yes
Format settings, ReFrames : 5 frames
Codec ID : V_MPEG4/ISO/AVC
Duration : 46 min 57 s
Bit rate mode : Variable
Bit rate : 3 476 kb/s
Maximum bit rate : 40.0 Mb/s
Width : 1 280 pixels
Height : 720 pixels
Display aspect ratio : 16:9
Frame rate mode : Constant
Frame rate : 25.000 FPS
Color space : YUV
Chroma subsampling : 4:2:0
Bit depth : 8 bits
Scan type : Progressive
Bits/(Pixel*Frame) : 0.151
Stream size : 1.14 GiB (93%)
Language : Russian
Default : Yes
Forced : No

Audio
ID : 2
Format : AC-3
Format/Info : Audio Coding 3
Codec ID : A_AC3
Duration : 46 min 57 s
Bit rate mode : Constant
Bit rate : 192 kb/s
Channel(s) : 2 channels
Channel positions : Front: L R
Sampling rate : 48.0 kHz
Frame rate : 31.250 FPS (1536 SPF)
Bit depth : 16 bits
Compression mode : Lossy
Stream size : 64.5 MiB (5%)
Language : Russian
Service kind : Complete Main
Default : Yes
Forced : No
скриншот  скриншот  скриншот  скриншот  

скриншот  скриншот  скриншот  скриншот  
pb.wtf



Скачать Мамы чемпионов через торрент https://i110.fastpic.ru/big/2019/0327/cc/7fb415f17e3639c970cf4f36b928a4cc.jpg Скачать фильм Мамы чемпионов через торрент бесплантно в хорошем качестве Описание: У 17-летней Веры было всё: золото на соревнованиях, любимый человек, обожаемый папа, мама — тренер по плаванию. Но после ... 10 10 7
Торрент: Зарегистрирован [2019-04-21 05:59] · скачан: 31 раз
Статус: √ проверено
Размер: 24.46 GB
Как cкачать? Как скачать Мамы чемпионов через торрент | qTorrent

% Раздел Тема Автор DL S | L
Наши сериалы [ 11.81 GB ] Мамы чемпионов / Сезон: 1 / Серии: 1-20 из 20 [2019 WEB-DLRip-AVC] bober100 Скачать
1 | 0
Наши сериалы [ 11.72 GB ] Мамы чемпионов / Сезон: 1 / Серии: 1-20 из 20 [2019 WEB-DLRip] bober100 Скачать
1 | 0


Последний раз редактировалось: bober100 (2019-04-21 05:59), всего редактировалось 4 раз(а)

28-11-2019 20:33  

Отключить всю рекламу на сайте

31-03-2019 16:35 Мамы чемпионов Скачать торрент  

че за дичь снимают!pb.wtf



03-04-2019 14:46 Мамы чемпионов Скачать торрент  

Либо для недоразвитых или так эфир заполнить вот и снимаютpb.wtf



    Дорогой пользователь! Огромная просьба, поблагодарите релизера, оцените раздачу и оставьте свои комментарий, если Вы скачали Мамы чемпионов через торрент бесплатно! Внесите свою лепту в развитие PiratBit!
    Комментировать посты могут только пользователи прошедшие не сложную регистрацию
    Показать сообщения:    

    Мамы чемпионов через торрент
    Скачать бесплатно Мамы чемпионов
    Мамы чемпионов скачать торрент
    Мамы чемпионов смотреть онлайн
    Cкачать фильм Мамы чемпионов бесплатно
    Мамы чемпионов скачать торрент в хорошем качестве
    Мамы чемпионов смотреть онлайн бесплатно в хорошем качестве


    Вы не можете начинать темы
    Вы не можете отвечать на сообщения
    Вы не можете редактировать свои сообщения
    Вы не можете удалять свои сообщения
    Вы не можете голосовать в опросах
    Вы не можете прикреплять файлы к сообщениям
    Вы можете скачивать файлы