новый адрес
Ссылка на приватное зеркало всего за 1$. Внимание количество ограничено!!!

iTunes

1+1

iTunes

мы

WEB-DL

1

iTunes

Чернобыль

iTunes

Ральф против интернета

Лицензия

ПШазам

Лицензия

Оно 2

Лицензия

30
pack

Вам бонус

ВАЖНО

!!Акция!!

Alien_RageХит недели

RePack

Resident Evil 21

ИГРА 18+

pack

RePack

jed

!!Акция!!

Alien_Rage

RePack

fifa19

RePack

Assassins Creed: Odyssey

RePack

NEED FOR SPEED™ PAYBACK

3 сезон

9 сезон

Бесстыжие 9 сезон

Все сериалы

все сериалы на PB.wtf

RePack

FAR CRY 5
Ребята, катастрофически не хватает 1900р. для оплаты серверов за Октябрь (всвязи с блокировками трафик упал в 3 раза), 1-2р., выручайте.
  

Посыльный / Message Man (Кори Пирсон) [2018, Боевик, триллер, криминал, WEB-DLRip] MVO [HDRezka Studio] pb.wtf

Посыльный через торрент pb.wtf

Раздают: 8 [ 0 KB/s ]
Размер: 1.46 GB | Добавлен: 8 мес. назад | Торрент скачан:572 раза
Скачать  

31-03-2019 14:48 Посыльный Скачать торрент  

Посыльный / Message Man
Год выпуска: 2018
Страна: Индонезия, Австралия
Жанр: Боевик, триллер, криминал
Продолжительность: 01:30:11
Перевод: Профессиональный (многоголосый) | HDRezka Studio
Субтитры: Английские (hardsub)

Режиссер: Кори Пирсон

rating

В ролях:

Пол О’Брайэн, Захира Алека Ашари, Альфридиус Годфред, Марио Ирвинся, Агни Пратиштха Кусвардоно, Рики Мартин, Валентайн Пайен, Гэри Плант, Эрма Пратма, Пэтти Сандя

Описание:

Приняв решение покончить с криминальным прошлым, бывший наемный убийца оседает вблизи побережья Индонезии, используя в качестве жилья маленькую яхту. Скромное и одинокое существование помогает Райану восстановить душевное спокойствие, но однажды его покой нарушает знакомство с задорным мальчиком Дони, которое быстро перерастает в дружбу. Однако вскоре размеренной жизни Райана приходит конец, когда Дони оказывается при смерти из-за действий местных бандитов. Готовясь отомстить за лучшего друга, бывший наемник неожиданно узнает, что индонезийские головорезы связаны с врагом из его прошлого...

Качество: WEB-DLRip
Формат: AVI

Видео: 720x304 (2.37:1), 24.000 fps, XviD build 73 ~2110 kbps avg, 0.40 bit/pixel
Аудио: 48 kHz, AC3 Dolby Digital, 2/0 (L,R) ch, ~192 kbps
скриншот  скриншот  скриншот  скриншот  

Формат : AVI
Формат/Информация : Audio Video Interleave
Размер файла : 1,46 Гбайт
Продолжительность : 1 ч. 30 м.
Общий поток : 2311 Кбит/сек
Программа кодирования : VirtualDubMod 1.5.10.3
Библиотека кодирования : VirtualDubMod build 2550/release

Видео
Идентификатор : 0
Формат : MPEG-4 Visual
Профиль формата : Advanced Simple@L5
Настройки формата : BVOP1 / Custom Matrix
Параметр BVOP формата : 1
Параметр QPel формата : Нет
Параметр GMC формата : Без точки перехода
Параметр матрицы формата : Выборочная
Идентификатор кодека : XVID
Идентификатор кодека/Подсказка : XviD
Продолжительность : 1 ч. 30 м.
Битрейт : 2110 Кбит/сек
Ширина : 720 пикселей
Высота : 304 пикселя
Соотношение сторон : 2,35:1
Частота кадров : 24,000 кадра/сек
Цветовое пространство : YUV
Субдискретизация насыщенности : 4:2:0
Битовая глубина : 8 бит
Тип развёртки : Прогрессивная
Метод сжатия : С потерями
Бит/(Пиксели*Кадры) : 0.402
Размер потока : 1,33 Гбайт (91%)
Библиотека кодирования : XviD 73

Аудио
Идентификатор : 1
Формат : AC-3
Формат/Информация : Audio Coding 3
Коммерческое название : Dolby Digital
Идентификатор кодека : 2000
Продолжительность : 1 ч. 30 м.
Вид битрейта : Постоянный
Битрейт : 192 Кбит/сек
Каналы : 2 канала
Channel layout : L R
Частота : 48,0 КГц
Частота кадров : 31,250 кадров/сек (1536 SPF)
Битовая глубина : 16 бит
Метод сжатия : С потерями
Размер потока : 124 Мбайт (8%)
Выравнивание : Разделение по промежуткам
Продолжительность промежутка : 42 мс. (1,00 видеокадр)
Время предзагрузки промежутка : 500 мс.

pb.wtf



Скачать Посыльный через торрент https://c.radikal.ru/c10/1903/07/d80619ab1c10.png Скачать фильм Посыльный через торрент бесплантно в хорошем качестве Описание: Приняв решение покончить с криминальным прошлым, бывший наемный убийца оседает вблизи побережья Индонезии, используя в качестве ... 9.8 10 15
Info! Золотая раздача, скачанное не засчитывается.
Торрент: Зарегистрирован [2019-03-31 14:48] · скачан: 572 раз
Статус: T временная
Размер: 1.46 GB
Как cкачать? Как скачать Посыльный через торрент | qTorrent

% Раздел Тема Автор DL S | L
T Фильмы 2018 [DVDrip, WEB-DLRip, HDrip] (DUB, MVO) [ 1.38 GB ] Посыльный / Message Man [2018 HDRip ] [HDrezka Studio] PsYcho Скачать
20 | 0
T Фильмы (Blu-ray, BD-Remux, HDDVD) [ 14.62 GB ] Посыльный / Message Man [2018 BD Remux 1080p] MVO [HDRezka Studio] bober100 Скачать
1 | 0
T Фильмы [HD 720p, 1080p] (Хороший звук DUB, MVO) [ 7.87 GB ] Посыльный / Message Man [2018 BDRip 1080p] MVO [HDRezka Studio] bober100 Скачать
8 | 0
T Фильмы (WEB-DL 720p, 1080p) [ 5.13 GB ] Посыльный / Message Man [2018 WEB-DL 1080p] MVO [HDRezka Studio] bober100 Скачать
5 | 0

28-11-2019 20:33  

Отключить всю рекламу на сайте

01-04-2019 04:14 Посыльный Скачать торрент  

Кровавый фильмец ninja , мне понравился bombpb.wtf



    Дорогой пользователь! Огромная просьба, поблагодарите релизера, оцените раздачу и оставьте свои комментарий, если Вы скачали Посыльный через торрент бесплатно! Внесите свою лепту в развитие PiratBit!
    Комментировать посты могут только пользователи прошедшие не сложную регистрацию
    Показать сообщения:    

    Посыльный через торрент
    Скачать бесплатно Посыльный
    Посыльный скачать торрент
    Посыльный смотреть онлайн
    Cкачать фильм Посыльный бесплатно
    Посыльный скачать торрент в хорошем качестве
    Посыльный смотреть онлайн бесплатно в хорошем качестве


    Вы не можете начинать темы
    Вы не можете отвечать на сообщения
    Вы не можете редактировать свои сообщения
    Вы не можете удалять свои сообщения
    Вы не можете голосовать в опросах
    Вы не можете прикреплять файлы к сообщениям
    Вы можете скачивать файлы