Ссылка на приватное зеркало нашего сайта всего за 1$. Внимание количество ограничено!!!

2 сезон

iTunes

1 сезон

1

2 сезон

2 сезон

iTunes

1 сезон

RePack

30

Ultimate

ВАЖНО

ИГРА 18+

pack

RePack

MK11
pack

Забери бонус

RePack

jed

!!Акция!!

Alien_Rage

RePack

fifa19

RePack

Assassins Creed: Odyssey

RePack

NEED FOR SPEED™ PAYBACK

4 сезон

9 сезон

Бесстыжие 9 сезон

Все сериалы

все сериалы на PB.wtf

RePack

FAR CRY 5
  

Чем мы заняты в тени / What We Do in the Shadows / Сезон: 1 / Серии: 1-10 из 10 (Джемейн Клемент, Джейсон Уолинер, Тайка Вайтити) [2019, ужасы, WEB-DLRip] MVO (Jaskier) pb.wtf

Чем мы заняты в тени через торрент pb.wtf

Размер: 3.1 GB | Добавлен: 1 год 5 мес. назад | Торрент скачан:13 раз
Скачать  

31-03-2019 16:31 Чем мы заняты в тени Скачать торрент  

Чем мы заняты в тени / What We Do in the Shadows
«***»
Страна: США
Год выпуска: 2019
Жанр: комедия, ужасы
Продолжительность: ~ 00:30:00 серия
Перевод: Профессиональный (многоголосый закадровый) | Jaskier
Субтитры: отсутствуют

Режиссер: Джемейн Клемент, Джейсон Уолинер, Тайка Вайтити

В ролях: Кайван Новак, Харви Гильен, Натасия Деметриу, Мэтт Берри, Марк Прокш, Вероника Словиковска, Крис Перфетти, Александра Хенриксон, Шиван Фэллон и др.

Описание:

Три главных героя делят дом, решают бытовые конфликты, ищут любовь — и свежую кровь, без которой им, вампирам, не прожить.



Качество: WEB-DLRip
Формат: AVI

Видео: ~ 1400 kbps, 720x400, 23,976 fps
Аудио Rus: Русский (AC3, 2 ch, 192 Кбит/с)
скриншот  скриншот  скриншот  скриншот   скриншот  

Общее
Полное имя : C:\What We Do in the Shadows. Season 1 (WEB-DLRip l 400p l Jaskier)\What.We.Do.in.the.Shadows.S01E01.WEB-DLRip.Rus.Jaskier.avi
Формат : AVI
Формат/Информация : Audio Video Interleave
Размер файла : 350 Мбайт
Продолжительность : 31 м. 0 с.
Общий поток : 1577 Кбит/сек
Программа кодирования : VirtualDubMod 1.5.10.3 | www.virtualdub-fr.org || (build 2550/release)
Библиотека кодирования : VirtualDubMod build 2550/release

Видео
Идентификатор : 0
Формат : MPEG-4 Visual
Профиль формата : Advanced Simple@L5
Параметр BVOP формата : 1
Параметр QPel формата : Нет
Параметр GMC формата : Без точки перехода
Параметр матрицы формата : Выборочная
Идентификатор кодека : XVID
Идентификатор кодека/Подсказка : XviD
Продолжительность : 31 м. 0 с.
Битрейт : 1376 Кбит/сек
Ширина : 720 пикселей
Высота : 400 пикселей
Соотношение сторон : 16:9
Частота кадров : 23,976 (24000/1001) кадра/сек
Цветовое пространство : YUV
Субдискретизация насыщенности : 4:2:0
Битовая глубина : 8 бит
Тип развёртки : Прогрессивная
Метод сжатия : С потерями
Бит/(Пиксели*Кадры) : 0.199
Размер потока : 305 Мбайт (87%)
Библиотека кодирования : XviD 73

Аудио
Идентификатор : 1
Формат : AC-3
Формат/Информация : Audio Coding 3
Расширение режима : CM (complete main)
Параметр Endianness формата : Big
Идентификатор кодека : 2000
Продолжительность : 31 м. 0 с.
Вид битрейта : Постоянный
Битрейт : 192 Кбит/сек
Каналы : 2 канала
Расположение каналов : Front: L R
Частота : 48,0 КГц
Частота кадров : 31,250 кадров/сек (1536 spf)
Метод сжатия : С потерями
Размер потока : 42,6 Мбайт (12%)
Выравнивание : Разделение по промежуткам
Продолжительность промежутка : 42 мс. (1,00 видеокадр)
Время предзагрузки промежутка : 500 мс.

Раздача ведётся путём добавления новых серий; при каждом добавлении создаётся новый торрент.
Чтобы начать докачку новой серии, пользователям необходимо сделать следующее:
1. остановить скачивание,
2. удалить старый торрент у себя из клиента (старые серии удалять не надо),
3. скачать новый торрент и запустить его у себя в клиенте вместо старого, при этом указать клиенту путь в старую папку, куда и должно происходить скачивание новых серий.

Ваш клиент при этом должен произвести хеширование (проверку) старой папки (если не производит сам - помогите ему сделать это), и будет докачивать только те серии которых у вас ещё нет. Старые серии при этом не удаляются, а продолжают раздаваться!

Eсли вы уже удалили старые серии, то предотвратить повторную закачку старых серий можно, отжав галочку в соответствующих местах при запуске нового торрента. По возможности, желательно не удалять старые серии как можно дольше, чтобы релизёр не столько продолжал раздавать старые серии, а смог сконцентрироваться на новых.

Совет для тех, кто не хочет ждать перехеширования:
Создайте ещё одну папку рядом с папкой сериала (рядом, а не в ней!!!). Каждую новую серию после удачной загрузки копируйте в новую папку так чтобы ваша основная папка всегда была пуста. Когда ваш новый торрент предложит вам закачать все файлы, выберете только последнюю. Для сидирования же укажите адрес новой папки.

Как закачать отдельный файл из торрента или докачать ранее пропущенные файлы торрента!
pb.wtf



Скачать Чем мы заняты в тени через торрент https://i110.fastpic.ru/big/2019/0331/1d/0ff83d40bb11b25e7e1a9f3354d4681d.png Скачать фильм Чем мы заняты в тени через торрент бесплантно в хорошем качестве Описание:Три главных героя делят дом, решают бытовые конфликты, ищут любовь — и свежую кровь, без которой им, вампирам, не прожить. ... 10 10 2
Торрент: Зарегистрирован [2019-06-01 01:07] · скачан: 13 раз
Статус: √ проверено
Размер: 3.1 GB
Как cкачать? Как скачать Чем мы заняты в тени через торрент | qTorrent

% Раздел Тема Автор DL S | L
Зарубежные сериалы [ 16.08 GB ] Чем мы заняты в тени / What We Do in the Shadows / Сезон: 2 / Серии: 1-10 из 10 [2020 WEB-DL 1080p] MVO [FOX] bober100 Скачать
1 | 0
Зарубежные сериалы [ 1.59 GB ] Чем мы заняты в тени / Реальные упыри / What We Do in the Shadows / Сезон: 2 / Серии: 1-5 из 10 [2020 WEB-DLRip] MVO [NewStudio] bober100 Скачать
2 | 0
Зарубежные сериалы [ 18.25 GB ] Чем мы заняты в тени / Реальные упыри / What We Do in the Shadows / Сезон: 2 / Серии: 1-10 из 10 [2020 WEB-DL 1080p] 2xMVO [Lostfilm NewStudio] bober100 Скачать
2 | 0
Зарубежные сериалы [ 1.93 GB ] Чем мы заняты в тени / Реальные упыри / What We Do in the Shadows / Сезон: 2 / Серии: 1-2 из 10 [2020 WEB-DL 720p] MVO [HDRezka Studio] bober100 Скачать
1 | 0
Зарубежные сериалы [ 10.94 GB ] Чем мы заняты в тени /What We Do in the Shadows / Сезон: 1 / Серии: 1-10 из 10 [2019 WEB-DL 720p] MVO [LostFilm] bober100 Скачать
1 | 0
Зарубежные сериалы [ 18.37 GB ] Чем мы заняты в тени / Реальные упыри / What We Do in the Shadows / Сезон: 1 / Серии: 1-10 из 10 [2019 WEB-DL 1080p] DVO [Кубик в Кубе] bober100 Скачать
2 | 0
Зарубежные сериалы [ 2.87 GB ] Чем мы заняты в тени / Реальные упыри / What We Do in the Shadows / Сезон: 1 / Серии: 1-10 из 10 [2019 WEB-DLRip] DVO [Good People] bober100 Скачать
1 | 0

28-11-2019 20:33  

Отключить всю рекламу на сайте

    Дорогой пользователь! Огромная просьба, поблагодарите релизера, оцените раздачу и оставьте свои комментарий, если Вы скачали Чем мы заняты в тени через торрент бесплатно! Внесите свою лепту в развитие PiratBit!
    Комментировать посты могут только пользователи прошедшие не сложную регистрацию
    Показать сообщения:    

    Чем мы заняты в тени через торрент
    Скачать бесплатно Чем мы заняты в тени
    Чем мы заняты в тени скачать торрент
    Чем мы заняты в тени смотреть онлайн
    Cкачать фильм Чем мы заняты в тени бесплатно
    Чем мы заняты в тени скачать торрент в хорошем качестве
    Чем мы заняты в тени смотреть онлайн бесплатно в хорошем качестве


    Вы не можете начинать темы
    Вы не можете отвечать на сообщения
    Вы не можете редактировать свои сообщения
    Вы не можете удалять свои сообщения
    Вы не можете голосовать в опросах
    Вы не можете прикреплять файлы к сообщениям
    Вы можете скачивать файлы