Ссылка на приватное зеркало всего за 1$. Внимание количество ограничено!!!

OK

1+1

iTunes

мы

OK

1

WEB-DLRip

Джокер

Пифагор

Ведьмак / The Witcher сериал

iTunes

ПШазам

ОК

Оно 2

iTunes

30
pack

Вам бонус

ВАЖНО

!!Акция!!

Alien_RageХит недели

RePack

Resident Evil 21

ИГРА 18+

pack

RePack

jed

RePack

fifa19

RePack

Assassins Creed: Odyssey

RePack

NEED FOR SPEED™ PAYBACK

4 сезон

9 сезон

Бесстыжие 9 сезон

Все сериалы

все сериалы на PB.wtf

RePack

FAR CRY 5
  

Происшествие в Монтоке / Incident at Montauk (Оуэн Маллиган) [2019, Ужасы, фантастика, WEB-DL 720p] MVO ["Синема УС"] pb.wtf

Происшествие в Монтоке через торрент pb.wtf

Размер: 2.36 GB | Добавлен: 9 мес. назад | Торрент скачан:42 раза
Скачать  

31-03-2019 16:59 Происшествие в Монтоке Скачать торрент  

Происшествие в Монтоке / Incident at MontaukГод выпуска: 2019
Страна: США
Жанр: Ужасы, фантастика
Продолжительность: 01:00:58
Перевод: Любительский (многоголосый) | "Синема УС"
Субтитры: отсутствуют

Режиссер: Оуэн Маллиган

rating

В ролях: Майкл Ян Сагру, Оуэн Маллиган

Описание: Очевидец НЛО Джед Логан становится одержим конспирологическими идеями и теориями заговора о пришельцах и начинает собственное расследование, которое приводит его в городской парк Монтока, где правительство, якобы, проводило эксперименты над людьми. Молодой человек решает прокрасться на охраняемый объект и разузнать правду об этом окруженном тайнами месте, чего бы это ему не стоило.

Качество: WEB-DL 720p
Формат: MKV

Видео: h.264, 5 158 Кбит/с,1280x720
Аудио#1: Русский, (AC3, 2 ch, 384 Кбит/с)
скриншот  скриншот  скриншот  

Общее
Уникальный идентификатор : 242412925376827334247354084441811366338 (0xB65F07FC00276BE38E51DB288FE4B1C2)
Полное имя : D:\Incident.at.Montauk.2019.P.WEB-DL.72Op.mkv
Формат : Matroska
Версия формата : Version 2
Размер файла : 2,36 Гбайт
Продолжительность : 1 ч. 0 м.
Режим общего битрейта : Переменный
Общий поток : 5544 Кбит/сек
Дата кодирования : UTC 2019-03-31 14:11:21
Программа кодирования : mkvmerge v8.3.0 ('Over the Horizon') 64bit
Библиотека кодирования : libebml v1.3.1 + libmatroska v1.4.2

Видео
Идентификатор : 1
Формат : AVC
Формат/Информация : Advanced Video Codec
Профиль формата : High@L4.1
Параметр CABAC формата : Да
Параметр RefFrames формата : 4 кадра
Идентификатор кодека : V_MPEG4/ISO/AVC
Продолжительность : 1 ч. 0 м.
Вид битрейта : Переменный
Битрейт : 5158 Кбит/сек
Максимальный битрейт : 6000 Кбит/сек
Ширина : 1280 пикселей
Высота : 720 пикселей
Соотношение сторон : 16:9
Режим частоты кадров : Постоянный
Частота кадров : 23,976 (24000/1001) кадра/сек
Стандарт вещания : Component
Цветовое пространство : YUV
Субдискретизация насыщенности : 4:2:0
Битовая глубина : 8 бит
Тип развёртки : Прогрессивная
Бит/(Пиксели*Кадры) : 0.229
Размер потока : 2,15 Гбайт (91%)
Default : Да
Forced : Нет
Цветовой диапазон : Limited
Основные цвета : BT.709
Характеристики трансфера : BT.709
Коэффициенты матрицы : BT.709

Аудио
Идентификатор : 2
Формат : AC-3
Формат/Информация : Audio Coding 3
Расширение режима : CM (complete main)
Параметр Endianness формата : Big
Идентификатор кодека : A_AC3
Продолжительность : 1 ч. 0 м.
Вид битрейта : Постоянный
Битрейт : 384 Кбит/сек
Каналы : 2 канала
Расположение каналов : Front: L R
Частота : 48,0 КГц
Частота кадров : 31,250 кадров/сек (1536 spf)
Метод сжатия : С потерями
Размер потока : 167 Мбайт (7%)
Default : Да
Forced : Нет

pb.wtf



Скачать Происшествие в Монтоке через торрент https://b.radikal.ru/b05/1903/4f/43098d9cfad0.jpg Скачать фильм Происшествие в Монтоке через торрент бесплантно в хорошем качестве Описание: Очевидец НЛО Джед Логан становится одержим конспирологическими идеями и теориями заговора о пришельцах и начинает собственное ... 10 10 2
Торрент: Зарегистрирован [2019-03-31 16:59] · скачан: 42 раз
Статус: T временная
Размер: 2.36 GB
Как cкачать? Как скачать Происшествие в Монтоке через торрент | qTorrent

% Раздел Тема Автор DL S | L
T Фильмы (мультфильмы) cо спонсором показа (Новинки AVI/MKV) [ 1.37 GB ] Происшествие в Монтоке / Incident at Montauk [2019 WEB-DLRip] MVO ["Синема УС"] bober100 Скачать
1 | 0

28-11-2019 20:33  

Отключить всю рекламу на сайте

    Дорогой пользователь! Огромная просьба, поблагодарите релизера, оцените раздачу и оставьте свои комментарий, если Вы скачали Происшествие в Монтоке через торрент бесплатно! Внесите свою лепту в развитие PiratBit!
    Комментировать посты могут только пользователи прошедшие не сложную регистрацию
    Показать сообщения:    

    Происшествие в Монтоке через торрент
    Скачать бесплатно Происшествие в Монтоке
    Происшествие в Монтоке скачать торрент
    Происшествие в Монтоке смотреть онлайн
    Cкачать фильм Происшествие в Монтоке бесплатно
    Происшествие в Монтоке скачать торрент в хорошем качестве
    Происшествие в Монтоке смотреть онлайн бесплатно в хорошем качестве


    Вы не можете начинать темы
    Вы не можете отвечать на сообщения
    Вы не можете редактировать свои сообщения
    Вы не можете удалять свои сообщения
    Вы не можете голосовать в опросах
    Вы не можете прикреплять файлы к сообщениям
    Вы можете скачивать файлы