новый адрес
Ссылка на приватное зеркало всего за 1$. Внимание количество ограничено!!!

iTunes

1+1

iTunes

мы

WEB-DL

1

iTunes

Чернобыль

iTunes

Ральф против интернета

Лицензия

ПШазам

Лицензия

Оно 2

Лицензия

30
pack

Вам бонус

ВАЖНО

!!Акция!!

Alien_RageХит недели

RePack

Resident Evil 21

ИГРА 18+

pack

RePack

jed

!!Акция!!

Alien_Rage

RePack

fifa19

RePack

Assassins Creed: Odyssey

RePack

NEED FOR SPEED™ PAYBACK

3 сезон

9 сезон

Бесстыжие 9 сезон

Все сериалы

все сериалы на PB.wtf

RePack

FAR CRY 5
Ребята, катастрофически не хватает 1900р. для оплаты серверов за Октябрь (всвязи с блокировками трафик упал в 3 раза), 1-2р., выручайте.
  

Мы умираем молодыми / We Die Young (Лайор Геллер) [2019, Драма, WEB-DLRip-AVC] MVO [HDRezka Studio] pb.wtf

Мы умираем молодыми через торрент pb.wtf

Раздают: 3 [ 0.1 KB/s ]
Размер: 1.46 GB | Добавлен: 8 мес. назад | Торрент скачан:167 раз
Скачать  

31-03-2019 19:58 Мы умираем молодыми Скачать торрент  

Мы умираем молодыми / We Die Young
Год выпуска: 2019
Страна: Болгария, США
Жанр: Драма
Продолжительность: 01:32:41
Перевод: Профессиональный (многоголосый) | HDRezka Studio
Субтитры: Английские

Режиссер: Лайор Геллер

rating

В ролях:

Жан-Клод Ван Дамм, Гари Бидл, Керри Беннетт, Никколо Бесио, Джим Цезарь, Робин Кара, Дэвид Кастанеда, Оуэн Дэвис, Уриель Эмиль, Лаура Гиош, Мигель Харичи

Описание:

14-летний Лукас, принадлежащий миру вашингтонской преступности, хочет, чтобы его 10-летнего брата обошла эта участь. Такой шанс выпадает, когда они знакомятся со своим новым соседом, ветераном войны в Афганистане.

Качество: WEB-DLRip-AVC
Формат: MKV

Видео: 1024x426 (2.40:1), 23,976 fps, x264 ~1 805 kbps avg, 0.173 bit/pixel
Аудио#1: 48 kHz, AC3 Dolby Digital, 2 (L,R) ch, ~192.00 kbps avg | RUS (HDRezka Studio)
Аудио#2: 48 kHz, AC3 Dolby Digital, 2 (L,R) ch, ~256.00 kbps avg | ENG
скриншот  скриншот  скриншот  

Общее
Уникальный идентификатор : 110317354536323923587758854618265982054 (0x52FE598293E9F30D3D06962216149466)
Полное имя : F:OlLanDGroupWe.Die.Young.2019.WEB-DLRip(AVC).OlLanDGroup.mkv
Формат : Matroska
Версия формата : Version 4 / Version 2
Размер файла : 1,46 Гбайт
Продолжительность : 1 ч. 32 м.
Общий поток : 2254 Кбит/сек
Название фильма : We.Die.Young.2019 #TorpedoUK#
Дата кодирования : UTC 2019-03-27 12:06:28
Программа кодирования : mkvmerge v29.0.0 ('Like It Or Not') 64-bit
Библиотека кодирования : libebml v1.3.6 + libmatroska v1.4.9

Видео
Идентификатор : 1
Формат : AVC
Формат/Информация : Advanced Video Codec
Профиль формата : High@L4.1
Параметр CABAC формата : Да
Параметр ReFrames формата : 10 кадров
Идентификатор кодека : V_MPEG4/ISO/AVC
Продолжительность : 1 ч. 32 м.
Битрейт : 1805 Кбит/сек
Ширина : 1024 пикселя
Высота : 426 пикселей
Соотношение сторон : 2,40:1
Режим частоты кадров : Постоянный
Частота кадров : 23,976 (24000/1001) кадра/сек
Цветовое пространство : YUV
Субдискретизация насыщенности : 4:2:0
Битовая глубина : 8 бит
Тип развёртки : Прогрессивная
Бит/(Пиксели*Кадры) : 0.173
Размер потока : 1,17 Гбайт (80%)
Библиотека кодирования : x264 core 146 r2538 121396c
Настройки программы : cabac=1 / ref=10 / deblock=1:-2:-3 / analyse=0x3:0x113 / me=umh / subme=10 / psy=1 / psy_rd=0.97:0.05 / mixed_ref=1 / me_range=48 / chroma_me=1 / trellis=2 / 8x8dct=1 / cqm=0 / deadzone=21,11 / fast_pskip=1 / chroma_qp_offset=-3 / threads=6 / lookahead_threads=1 / sliced_threads=0 / nr=0 / decimate=1 / interlaced=0 / bluray_compat=0 / constrained_intra=0 / bframes=11 / b_pyramid=2 / b_adapt=2 / b_bias=0 / direct=3 / weightb=1 / open_gop=0 / weightp=2 / keyint=240 / keyint_min=23 / scenecut=40 / intra_refresh=0 / rc_lookahead=40 / rc=2pass / mbtree=0 / bitrate=1805 / ratetol=1.0 / qcomp=0.60 / qpmin=0 / qpmax=69 / qpstep=4 / cplxblur=20.0 / qblur=0.5 / vbv_maxrate=50000 / vbv_bufsize=62500 / nal_hrd=none / filler=0 / ip_ratio=1.40 / pb_ratio=1.30 / aq=1:1.00
Default : Да
Forced : Нет

Аудио #1
Идентификатор : 2
Формат : AC-3
Формат/Информация : Audio Coding 3
Расширение режима : CM (complete main)
Параметр Endianness формата : Big
Идентификатор кодека : A_AC3
Продолжительность : 1 ч. 32 м.
Вид битрейта : Постоянный
Битрейт : 192 Кбит/сек
Каналы : 2 канала
Расположение каналов : Front: L R
Частота : 48,0 КГц
Частота кадров : 31,250 кадров/сек (1536 spf)
Битовая глубина : 16 бит
Метод сжатия : С потерями
Размер потока : 127 Мбайт (9%)
Заголовок : MVO [HDRezka Studio]
Язык : Russian
Default : Да
Forced : Нет

Аудио #2
Идентификатор : 3
Формат : AC-3
Формат/Информация : Audio Coding 3
Расширение режима : CM (complete main)
Параметр Endianness формата : Big
Идентификатор кодека : A_AC3
Продолжительность : 1 ч. 32 м.
Вид битрейта : Постоянный
Битрейт : 256 Кбит/сек
Каналы : 2 канала
Расположение каналов : Front: L R
Частота : 48,0 КГц
Частота кадров : 31,250 кадров/сек (1536 spf)
Битовая глубина : 16 бит
Метод сжатия : С потерями
Размер потока : 170 Мбайт (11%)
Заголовок : [Original]
Язык : English
Default : Нет
Forced : Нет

Текст
Идентификатор : 4
Формат : UTF-8
Идентификатор кодека : S_TEXT/UTF8
Идентификатор кодека/Информация : UTF-8 Plain Text
Продолжительность : 1 ч. 28 м.
Битрейт : 46 бит/сек
Count of elements : 948
Размер потока : 30,3 Кбайт (0%)
Заголовок : Full
Язык : English
Default : Нет
Forced : Нет

Меню
00:00:00.000 : en:1
00:01:21.000 : en:2
00:14:33.000 : en:3
00:25:43.000 : en:4
00:35:11.000 : en:5
00:44:30.000 : en:6
00:55:59.000 : en:7
01:06:11.000 : en:8
01:14:46.000 : en:9
01:21:18.000 : en:10
01:28:06.000 : en:11

pb.wtf



Скачать Мы умираем молодыми через торрент https://c.radikal.ru/c35/1903/e3/2c33657e5a1a.jpg Скачать фильм Мы умираем молодыми через торрент бесплантно в хорошем качестве Описание: 14-летний Лукас, принадлежащий миру вашингтонской преступности, хочет, чтобы его 10-летнего брата обошла эта участь. Такой шанс ... 10 10 6
Торрент: Зарегистрирован [2019-03-31 19:58] · скачан: 167 раз
Статус: T временная
Размер: 1.46 GB
Как cкачать? Как скачать Мы умираем молодыми через торрент | qTorrent

% Раздел Тема Автор DL S | L
Фильмы [HD 720p, 1080p] (Хороший звук DUB, MVO) [ 7.95 GB ] Мы умираем молодыми / We Die Young [2019 BDRip 1080p] MVO [HDRezka Studio] - ExKinoRay Enigma2010 Скачать
1 | 0
Фильмы [HD 720p, 1080p] (Хороший звук DUB, MVO) [ 4.88 GB ] Мы умираем молодыми / We Die Young [2019 BDRip 720p] MVO [HDRezka Studio] - ExKinoRay Enigma2010 Скачать
1 | 3
T Фильмы 2019 [DVDrip, WEB-DLRip, HDrip] (DUB, MVO) [ 1.37 GB ] Мы умираем молодыми / We Die Young [2019 WEB-DLRip] MVO [HDRezka Studio] - ExKinoRay Enigma2010 Скачать
6 | 0
T Фильмы (WEB-DL 720p, 1080p) [ 3.22 GB ] Мы умираем молодыми / We Die Young [2019 WEB-DL 1080p] MVO [HDRezka Studio] - ExKinoRay Enigma2010 Скачать
4 | 0

28-11-2019 20:33  

Отключить всю рекламу на сайте

02-04-2019 18:20 Мы умираем молодыми Скачать торрент  

ван дам уже не тотpb.wtf



    Дорогой пользователь! Огромная просьба, поблагодарите релизера, оцените раздачу и оставьте свои комментарий, если Вы скачали Мы умираем молодыми через торрент бесплатно! Внесите свою лепту в развитие PiratBit!
    Комментировать посты могут только пользователи прошедшие не сложную регистрацию
    Показать сообщения:    

    Мы умираем молодыми через торрент
    Скачать бесплатно Мы умираем молодыми
    Мы умираем молодыми скачать торрент
    Мы умираем молодыми смотреть онлайн
    Cкачать фильм Мы умираем молодыми бесплатно
    Мы умираем молодыми скачать торрент в хорошем качестве
    Мы умираем молодыми смотреть онлайн бесплатно в хорошем качестве


    Вы не можете начинать темы
    Вы не можете отвечать на сообщения
    Вы не можете редактировать свои сообщения
    Вы не можете удалять свои сообщения
    Вы не можете голосовать в опросах
    Вы не можете прикреплять файлы к сообщениям
    Вы можете скачивать файлы