новый адрес
Ссылка на приватное зеркало всего за 1$. Внимание количество ограничено!!!

iTunes

1+1

iTunes

мы

WEB-DL

1

iTunes

Чернобыль

iTunes

Ральф против интернета

Лицензия

ПШазам

Лицензия

Оно 2

Лицензия

30
pack

Вам бонус

ВАЖНО

!!Акция!!

Alien_RageХит недели

RePack

Resident Evil 21

ИГРА 18+

pack

RePack

jed

!!Акция!!

Alien_Rage

RePack

fifa19

RePack

Assassins Creed: Odyssey

RePack

NEED FOR SPEED™ PAYBACK

3 сезон

9 сезон

Бесстыжие 9 сезон

Все сериалы

все сериалы на PB.wtf

RePack

FAR CRY 5
Ребята, катастрофически не хватает 1900р. для оплаты серверов за Октябрь (всвязи с блокировками трафик упал в 3 раза), 1-2р., выручайте.
  

Среди теней / Among the Shadows (Тьяго Мескита) [2019, ужасы, боевик, триллер, WEB-DLRip] MVO [HDRezka Studio] pb.wtf

Среди теней через торрент pb.wtf

Раздают: 2 [ 0 KB/s ]
Размер: 1.46 GB | Добавлен: 8 мес. назад | Торрент скачан:338 раз
Скачать  

31-03-2019 21:14 Среди теней Скачать торрент  

Среди теней / Among the Shadows Год выпуска: 2019
Страна: США
Жанр: ужасы, боевик, триллер
Продолжительность: 01:36:17
Перевод: Профессиональный (многоголосый) | HDRezka Studio
Субтитры: отсутствуют

Режиссер: Тьяго Мескита

rating

В ролях:

Линдси Лохан, Шарлотта Бекетт, Джанни Капальди, Доминик Мадани, Рейнальд Бялес, Барри Джей Минофф, Кристоффель Вердонк, Джон Фландерс, Питер Орган, Дэниэл Хью Келли

Описание:

Дядю Кристи Вулф, частного детектива из Брюсселя, убивают. Девушка намерена выяснить, кто стоит за смертью единственного близкого ей человека, но при этом сохранить его тайну от мира людей. Мужчина был оборотнем, а сама Кристи, как его кровный родственник, обладает повышенной чувствительностью к сверхъестественному. Во время расследования детектив понимает, что подземный мир оказался на пороге масштабной войны, которая может затронуть обычных людей. Это осложняет поиски и подвергает опасности жизнь Кристи...

Качество: WEB-DLRip
Формат: AVI

Видео: 704x400 (1.76:1), 23.976 fps, XviD build 73 ~1964 kbps avg, 0.29 bit/pixel
Аудио: 48 kHz, AC3 Dolby Digital, 2/0 (L,R) ch, ~192 kbps
скриншот  скриншот  скриншот  скриншот  

Формат : AVI
Формат/Информация : Audio Video Interleave
Размер файла : 1,46 Гбайт
Продолжительность : 1 ч. 36 м.
Общий поток : 2166 Кбит/сек
Программа кодирования : VirtualDubMod 1.5.10.3
Библиотека кодирования : VirtualDubMod build 2550/release
Авторское право : порошков

Видео
Идентификатор : 0
Формат : MPEG-4 Visual
Профиль формата : Advanced Simple@L5
Настройки формата : BVOP1 / Custom Matrix
Параметр BVOP формата : 1
Параметр QPel формата : Нет
Параметр GMC формата : Без точки перехода
Параметр матрицы формата : Выборочная
Идентификатор кодека : XVID
Идентификатор кодека/Подсказка : XviD
Продолжительность : 1 ч. 36 м.
Битрейт : 1964 Кбит/сек
Ширина : 704 пикселя
Высота : 400 пикселей
Соотношение сторон : 16:9
Частота кадров : 23,976 (24000/1001) кадра/сек
Цветовое пространство : YUV
Субдискретизация насыщенности : 4:2:0
Битовая глубина : 8 бит
Тип развёртки : Прогрессивная
Метод сжатия : С потерями
Бит/(Пиксели*Кадры) : 0.291
Размер потока : 1,32 Гбайт (91%)
Библиотека кодирования : XviD 73

Аудио
Идентификатор : 1
Формат : AC-3
Формат/Информация : Audio Coding 3
Коммерческое название : Dolby Digital
Идентификатор кодека : 2000
Продолжительность : 1 ч. 36 м.
Вид битрейта : Постоянный
Битрейт : 192 Кбит/сек
Каналы : 2 канала
Channel layout : L R
Частота : 48,0 КГц
Частота кадров : 31,250 кадров/сек (1536 SPF)
Битовая глубина : 16 бит
Метод сжатия : С потерями
Размер потока : 132 Мбайт (9%)
Выравнивание : Разделение по промежуткам
Продолжительность промежутка : 42 мс. (1,00 видеокадр)
Время предзагрузки промежутка : 500 мс.

pb.wtf



Скачать Среди теней через торрент https://b.radikal.ru/b07/1903/86/5897ce8e18e1.jpg Скачать фильм Среди теней через торрент бесплантно в хорошем качестве Описание: Дядю Кристи Вулф, частного детектива из Брюсселя, убивают. Девушка намерена выяснить, кто стоит за смертью единственного близкого ... 10 10 12
Торрент: Зарегистрирован [2019-03-31 21:14] · скачан: 338 раз
Статус: T временная
Размер: 1.46 GB
Как cкачать? Как скачать Среди теней через торрент | qTorrent

% Раздел Тема Автор DL S | L
T Фильмы (WEB-DL 720p, 1080p) [ 6.58 GB ] Среди теней / Among the Shadows [2019 WEB-DL 1080p] MVO [HDRezka Studio] bober100 Скачать
1 | 0

28-11-2019 20:33  

Отключить всю рекламу на сайте


02-04-2019 10:46 Среди теней Скачать торрент  

Не давно по телеку с ней фильм был, "Почти беременная", так там она хорошенькая такая, а тут, судя по постеру, трансвестит какой-то.
Да время и кокс не щадит никого )))

Рейтинг зашкаливает, пожалуй не рискну )))pb.wtf



05-04-2019 16:47 Среди теней Скачать торрент  

Это ОНА?! Фильм биография что-ли?pb.wtf



    Дорогой пользователь! Огромная просьба, поблагодарите релизера, оцените раздачу и оставьте свои комментарий, если Вы скачали Среди теней через торрент бесплатно! Внесите свою лепту в развитие PiratBit!
    Комментировать посты могут только пользователи прошедшие не сложную регистрацию
    Показать сообщения:    

    Среди теней через торрент
    Скачать бесплатно Среди теней
    Среди теней скачать торрент
    Среди теней смотреть онлайн
    Cкачать фильм Среди теней бесплатно
    Среди теней скачать торрент в хорошем качестве
    Среди теней смотреть онлайн бесплатно в хорошем качестве


    Вы не можете начинать темы
    Вы не можете отвечать на сообщения
    Вы не можете редактировать свои сообщения
    Вы не можете удалять свои сообщения
    Вы не можете голосовать в опросах
    Вы не можете прикреплять файлы к сообщениям
    Вы можете скачивать файлы