Ссылка на приватное зеркало нашего сайта всего за 1$. Внимание количество ограничено!!!

2 сезон

iTunes

1 сезон

1

2 сезон

2 сезон

iTunes

1 сезон

RePack

30

Ultimate

ВАЖНО

ИГРА 18+

pack

RePack

MK11
pack

Забери бонус

RePack

jed

!!Акция!!

Alien_Rage

RePack

fifa19

RePack

Assassins Creed: Odyssey

RePack

NEED FOR SPEED™ PAYBACK

4 сезон

9 сезон

Бесстыжие 9 сезон

Все сериалы

все сериалы на PB.wtf

RePack

FAR CRY 5
  

Среди теней / Among the Shadows (Тьяго Мескита) [2019, ужасы, боевик, триллер, WEB-DL 1080p] MVO [HDRezka Studio] pb.wtf

Среди теней через торрент pb.wtf

Размер: 6.58 GB | Добавлен: 1 год 7 мес. назад | Торрент скачан:127 раз
Скачать  

31-03-2019 21:14 Среди теней Скачать торрент  

Среди теней / Among the Shadows Год выпуска: 2019
Страна: США
Жанр: ужасы, боевик, триллер
Продолжительность: 01:36:17
Перевод: Профессиональный (многоголосый) | HDRezka Studio
Субтитры: Английские (SDH)

Режиссер: Тьяго Мескита

rating

В ролях:

Линдси Лохан, Шарлотта Бекетт, Джанни Капальди, Доминик Мадани, Рейнальд Бялес, Барри Джей Минофф, Кристоффель Вердонк, Джон Фландерс, Питер Орган, Дэниэл Хью Келли

Описание:

Дядю Кристи Вулф, частного детектива из Брюсселя, убивают. Девушка намерена выяснить, кто стоит за смертью единственного близкого ей человека, но при этом сохранить его тайну от мира людей. Мужчина был оборотнем, а сама Кристи, как его кровный родственник, обладает повышенной чувствительностью к сверхъестественному. Во время расследования детектив понимает, что подземный мир оказался на пороге масштабной войны, которая может затронуть обычных людей. Это осложняет поиски и подвергает опасности жизнь Кристи...

Качество: WEB-DL 1080p
Формат: MKV

Видео: 1920x816 (2.35:1), 24,000 fps, x264 ~8 954 kbps avg, 0.180 bit/pixel
Аудио#1: 48 kHz, AC3 Dolby Digital, 2 (L,R) ch, ~192.00 kbps avg | RUS (HDRezka Studio)
Аудио#2: 48 kHz, E-AC3 Dolby Digital Plus, 3/2 (L,C,R,l,r) + LFE ch, ~640.00 kbps avg | ENG
скриншот  скриншот  скриншот  скриншот  

Общее
Уникальный идентификатор : 30193752469943881624969294155078890542 (0x16B71AEE7CC2AC1DF81CF13043B6F42E)
Полное имя : F:OlLanDGroupAmong.the.Shadows.2019.AMZN.WEB-DL(1080p).OllanDGroup.mkv
Формат : Matroska
Версия формата : Version 4 / Version 2
Размер файла : 6,58 Гбайт
Продолжительность : 1 ч. 36 м.
Общий поток : 9783 Кбит/сек
Название фильма : Among.the.Shadows.2019 #TorpedoUK#
Дата кодирования : UTC 2019-03-29 15:52:43
Программа кодирования : mkvmerge v29.0.0 ('Like It Or Not') 64-bit
Библиотека кодирования : libebml v1.3.6 + libmatroska v1.4.9

Видео
Идентификатор : 1
Формат : AVC
Формат/Информация : Advanced Video Codec
Профиль формата : High@L4
Параметр CABAC формата : Да
Параметр ReFrames формата : 4 кадра
Идентификатор кодека : V_MPEG4/ISO/AVC
Продолжительность : 1 ч. 36 м.
Вид битрейта : Постоянный
Битрейт : 8954 Кбит/сек
Номинальный битрейт : 10000 Кбит/сек
Ширина : 1920 пикселей
Высота : 1080 пикселей
Соотношение сторон : 16:9
Режим частоты кадров : Постоянный
Частота кадров : 23,976 (24000/1001) кадра/сек
Цветовое пространство : YUV
Субдискретизация насыщенности : 4:2:0
Битовая глубина : 8 бит
Тип развёртки : Прогрессивная
Бит/(Пиксели*Кадры) : 0.180
Размер потока : 6,02 Гбайт (91%)
Default : Да
Forced : Нет
Цветовой диапазон : Limited
Основные цвета : BT.709
Характеристики трансфера : BT.709
Коэффициенты матрицы : BT.709

Аудио #1
Идентификатор : 2
Формат : AC-3
Формат/Информация : Audio Coding 3
Расширение режима : CM (complete main)
Параметр Endianness формата : Big
Идентификатор кодека : A_AC3
Продолжительность : 1 ч. 36 м.
Вид битрейта : Постоянный
Битрейт : 192 Кбит/сек
Каналы : 2 канала
Расположение каналов : Front: L R
Частота : 48,0 КГц
Частота кадров : 31,250 кадров/сек (1536 spf)
Битовая глубина : 16 бит
Метод сжатия : С потерями
Размер потока : 132 Мбайт (2%)
Заголовок : MVO [HDRezka Studio]
Язык : Russian
Default : Да
Forced : Нет

Аудио #2
Идентификатор : 3
Формат : E-AC-3
Формат/Информация : Enhanced Audio Coding 3
Параметр Endianness формата : Big
Идентификатор кодека : A_EAC3
Продолжительность : 1 ч. 36 м.
Вид битрейта : Постоянный
Битрейт : 640 Кбит/сек
Каналы : 6 каналов
Расположение каналов : Front: L C R, Side: L R, LFE
Частота : 48,0 КГц
Частота кадров : 187,500 кадров/сек (256 spf)
Метод сжатия : С потерями
Размер потока : 441 Мбайт (7%)
Заголовок : [Original]
Язык : English
Default : Нет
Forced : Нет

Текст
Идентификатор : 4
Формат : UTF-8
Идентификатор кодека : S_TEXT/UTF8
Идентификатор кодека/Информация : UTF-8 Plain Text
Продолжительность : 1 ч. 32 м.
Битрейт : 49 бит/сек
Count of elements : 1160
Размер потока : 33,8 Кбайт (0%)
Заголовок : SDH
Язык : English
Default : Нет
Forced : Нет

pb.wtf



Скачать Среди теней через торрент https://b.radikal.ru/b07/1903/86/5897ce8e18e1.jpg Скачать фильм Среди теней через торрент бесплантно в хорошем качестве Описание: Дядю Кристи Вулф, частного детектива из Брюсселя, убивают. Девушка намерена выяснить, кто стоит за смертью единственного близкого ... 8.8 10 6
Торрент: Зарегистрирован [2019-03-31 21:14] · скачан: 127 раз
Статус: T временная
Размер: 6.58 GB
Как cкачать? Как скачать Среди теней через торрент | qTorrent

% Раздел Тема Автор DL S | L
T Фильмы 2019-2020 [DVDrip, WEB-DLRip, HDrip] (DUB, MVO) [ 1.46 GB ] Среди теней / Among the Shadows [2019 WEB-DLRip] MVO [HDRezka Studio] bober100 Скачать
2 | 0

28-11-2019 20:33  

Отключить всю рекламу на сайте

    Дорогой пользователь! Огромная просьба, поблагодарите релизера, оцените раздачу и оставьте свои комментарий, если Вы скачали Среди теней через торрент бесплатно! Внесите свою лепту в развитие PiratBit!
    Комментировать посты могут только пользователи прошедшие не сложную регистрацию
    Показать сообщения:    

    Среди теней через торрент
    Скачать бесплатно Среди теней
    Среди теней скачать торрент
    Среди теней смотреть онлайн
    Cкачать фильм Среди теней бесплатно
    Среди теней скачать торрент в хорошем качестве
    Среди теней смотреть онлайн бесплатно в хорошем качестве


    Вы не можете начинать темы
    Вы не можете отвечать на сообщения
    Вы не можете редактировать свои сообщения
    Вы не можете удалять свои сообщения
    Вы не можете голосовать в опросах
    Вы не можете прикреплять файлы к сообщениям
    Вы можете скачивать файлы